<?xml version="1.0" standalone="no"?>
<!DOCTYPE svg PUBLIC "-//W3C//DTD SVG 1.1//EN" "http://www.w3.org/Graphics/SVG/1.1/DTD/svg11.dtd" >
<svg>
<metadata>
Created by FontForge 20120731 at Thu Dec 12 10:10:14 2013
 By World Wide Web Server
Copyright (c)  M Klein     July, 2004
</metadata>
<defs>
<font id="WinterthurCondensed" horiz-adv-x="424" >
  <font-face 
    font-family="WinterthurCondensed"
    font-weight="400"
    font-stretch="normal"
    units-per-em="1000"
    panose-1="2 0 0 6 3 0 0 2 0 4"
    ascent="800"
    descent="-200"
    x-height="558"
    cap-height="758"
    bbox="-178 -429 813 997"
    underline-thickness="155"
    underline-position="-8"
    unicode-range="U+0005-E0A6"
  />
<missing-glyph horiz-adv-x="1000" 
 />
    <glyph glyph-name=".notdef" horiz-adv-x="1000" 
 />
    <glyph glyph-name="breve" horiz-adv-x="375" 
d="M277 788h-38q-3 -39 -18 -71t-34 -32q-20 0 -35 31t-18 72h-35q3 -49 17 -82q14 -32 32 -48q19 -18 40 -18t39 18q18 16 33 48q14 33 17 82z" />
    <glyph glyph-name="dotaccent" horiz-adv-x="375" 
d="M217 643v63h-58v-63h58z" />
    <glyph glyph-name="ring" horiz-adv-x="376" 
d="M244 724q0 35 -16 61q-17 26 -40 26t-40 -26q-16 -26 -16 -61t16 -60q17 -26 40 -26t40 26q16 25 16 60zM217 723q0 -22 -8 -38q-9 -17 -21 -17t-21 17q-8 16 -8 38q0 21 8 39q9 16 21 16t21 -16q8 -18 8 -39z" />
    <glyph glyph-name="hungarumlaut" unicode="&#xa;" horiz-adv-x="376" 
d="M291 788h-39l-37 -130h38zM205 788h-38l-37 -132h37z" />
    <glyph glyph-name="ogonek" horiz-adv-x="376" 
d="M241 -196v30q-13 -10 -25 -10q-21 0 -28 12q-9 12 -9 27q0 22 16 54q15 33 40 52h-70q-15 -29 -23 -55t-8 -52q0 -31 19 -53q19 -21 48 -21q21 0 40 16z" />
    <glyph glyph-name="caron" horiz-adv-x="375" 
d="M278 788h-47l-44 -81l-43 81h-46l56 -126h67z" />
    <glyph glyph-name="dotlessi" unicode="&#xd;" horiz-adv-x="149" 
d="M104 0v558h-58v-558h58z" />
    <glyph glyph-name="fraction" horiz-adv-x="53" 
d="M231 780h-54l-355 -776h62z" />
    <glyph glyph-name="fi" horiz-adv-x="381" 
d="M335 0v558h-203v41q0 82 19 104q19 21 47 21q17 0 39 -7v62q-30 9 -50 9q-50 0 -83 -47q-31 -46 -31 -159v-24h-51v-48h51v-510h57v510h147v-510h58z" />
    <glyph glyph-name="fl" horiz-adv-x="381" 
d="M335 0v771q-73 17 -128 17q-54 0 -80 -26q-29 -26 -42 -70q-6 -23 -9.5 -50.5t-3.5 -60.5v-23h-51v-48h51v-510h58v510h101v48h-101v44q0 66 18 99q18 34 55 34q14 0 32.5 -3t40.5 -11v-721h59z" />
    <glyph glyph-name="Lslash" horiz-adv-x="370" 
d="M360 0v58h-251v335l54 29v52l-56 -31v315h-62v-352l-57 -34v-51l55 32v-353h317z" />
    <glyph glyph-name="lslash" horiz-adv-x="148" 
d="M160 417v62l-58 -34v343h-57v-382l-57 -35v-51l54 34v-354h61v384z" />
    <glyph glyph-name="Zcaron" horiz-adv-x="366" 
d="M338 0v66h-254l249 611v81h-292v-57h234l-251 -610v-91h314zM236 927h-46l-44 -31l-45 31h-45l69 -76h40z" />
    <glyph glyph-name="zcaron" horiz-adv-x="352" 
d="M318 0v51h-229l222 433v74h-270v-48l216 -1l-226 -431v-78h287zM263 788h-47l-44 -81l-43 81h-46l56 -126h67z" />
    <glyph glyph-name="space" unicode=" " horiz-adv-x="271" 
 />
    <glyph glyph-name="exclam" unicode="!" horiz-adv-x="193" 
d="M135 758h-77l14 -534h50zM126 0v63h-58v-63h58z" />
    <glyph glyph-name="quotedbl" unicode="&#x22;" horiz-adv-x="318" 
d="M260 788h-65l11 -270h43zM125 788h-67l13 -271h43z" />
    <glyph glyph-name="numbersign" unicode="#" 
d="M405 206v54h-110l41 243h69v42h-60l37 213h-46l-36 -213h-117l35 213h-45l-36 -213h-118v-44h109l-41 -244h-68v-45h60l-36 -212h46l36 211h118l-38 -211h47l36 206h117zM292 500l-42 -242h-116l41 242h117z" />
    <glyph glyph-name="dollar" unicode="$" 
d="M370 206q0 19 -2.5 36.5t-7.5 34.5q-11 35 -35 61q-12 13 -26 24.5t-29 20.5l-26 14v308q24 -6 38 -24q13 -16 13 -43v-5h62v4q0 40 -24 76q-22 35 -90 43v64h-49v-64q-48 -9 -75 -36q-28 -28 -41 -69q-14 -42 -14 -91q0 -64 22 -109q11 -23 32.5 -44.5t54.5 -41.5
l19 -11v-302q-53 9 -68 38q-16 29 -16 72v5h-59v-5q0 -59 30 -107q30 -49 112 -55v-59h53v59q47 11 72 40t40 75q14 47 14 91zM194 431l-13 8q-18 12 -29.5 26.5t-17.5 28.5q-13 27 -13 68q0 52 17 90q16 39 56 51v-272zM312 194q0 -34 -7 -62q-8 -31 -21 -50t-41 -25v266
l15 -10q15 -11 25 -23.5t17 -26.5q12 -29 12 -69z" />
    <glyph glyph-name="percent" unicode="%" horiz-adv-x="576" 
d="M556 221q0 100 -31 162q-32 59 -77 59q-46 0 -77 -60q-31 -62 -31 -161q0 -101 31 -161t77 -60q45 0 77 60q31 60 31 161zM235 537q0 102 -31 161q-32 60 -77 60q-46 0 -76 -60q-31 -59 -31 -161q0 -103 31 -161q30 -60 76 -60q45 0 77 60q31 58 31 161zM482 758h-54
l-343 -758h61zM504 221q0 -77 -15 -126q-17 -49 -41 -49t-41 49q-15 49 -15 126q0 75 15 125q17 50 41 50t41 -50q15 -50 15 -125zM184 536q0 -38 -4 -69.5t-12 -56.5q-16 -49 -41 -49t-40 49t-15 126q0 38 3.5 69t11.5 57q15 49 40 49t41 -49q8 -26 12 -57t4 -69z" />
    <glyph glyph-name="ampersand" unicode="&#x26;" horiz-adv-x="463" 
d="M428 0q-50 75 -72 120q56 109 56 269v11h-57v-23q0 -38 -1.5 -65.5t-5.5 -47.5q-6 -38 -21 -70q-28 56 -55.5 119.5t-54.5 135.5q21 18 37.5 41t30.5 51q27 54 27 112q0 51 -27 89q-26 38 -74 38q-31 0 -57 -20q-25 -21 -40 -61q-8 -20 -11 -39.5t-3 -39.5q0 -8 0.5 -17
t1.5 -19q3 -20 9 -40q6 -21 27 -76q1 -2 2 -5t3 -8q-52 -41 -83 -108q-32 -65 -32 -143q0 -30 4.5 -58.5t15.5 -55.5q19 -53 54 -83q33 -30 81 -30q38 0 68 21q16 10 31 26t31 39l12 -22q10 -22 23 -41h80zM261 656q0 -33 -16 -74q-17 -44 -48 -75q-5 13 -7 15q-8 20 -13 34
t-7 22t-3.5 17t-3.5 18q-3 18 -3 33q0 31 13 58q12 28 37 28q12 0 25 -10t20 -29q6 -20 6 -37zM292 104q-36 -50 -59 -62q-25 -11 -41 -11q-26 0 -52 22t-40 62q-8 20 -11 41.5t-3 45.5q0 56 20 113q21 55 58 89q28 -84 67 -171q19 -43 34 -75t27 -54z" />
    <glyph glyph-name="quotesingle" unicode="'" horiz-adv-x="192" 
d="M139 788h-86l20 -270h47z" />
    <glyph glyph-name="parenleft" unicode="(" horiz-adv-x="284" 
d="M242 -182q-54 90 -78 162q-24 73 -36 159q-7 44 -10 86.5t-3 85.5q0 42 3 84.5t10 86.5q6 44 15 83.5t20 75.5t30.5 76.5t45.5 85.5h-40q-20 -28 -39.5 -62.5t-36.5 -77.5t-29.5 -86.5t-20.5 -88.5t-12 -89t-4 -88q0 -45 4 -89t12 -89t20.5 -88.5t29.5 -86.5
q34 -83 75 -140h44z" />
    <glyph glyph-name="parenright" unicode=")" horiz-adv-x="284" 
d="M227 311q0 44 -4 88t-12 89q-15 89 -51 175q-17 43 -36.5 77.5t-39.5 62.5h-40q26 -45 45.5 -85t30.5 -77q24 -72 36 -159q7 -44 10 -86.5t3 -84.5q0 -43 -3 -85.5t-10 -86.5q-12 -86 -36 -159q-12 -36 -31 -76.5t-47 -85.5h44q41 57 75 140q18 43 30.5 86.5t20.5 88.5
q15 90 15 178z" />
    <glyph glyph-name="asterisk" unicode="*" horiz-adv-x="323" 
d="M293 603l-9 51l-102 -28l5 104h-50l5 -107l-105 29l-8 -48l105 -20l-65 -94l39 -25l54 88l52 -88l41 26l-65 93z" />
    <glyph glyph-name="plus" unicode="+" 
d="M386 249v48h-150v248h-48v-248h-149v-48h149v-249h48v249h150z" />
    <glyph glyph-name="comma" unicode="," horiz-adv-x="193" 
d="M136 29v71h-79v-100h39q0 -31 -4 -51q-3 -23 -12 -44q-7 -19 -22 -36v-42q25 17 44 45q8 14 14.5 29t11.5 32q8 35 8 96z" />
    <glyph glyph-name="hyphen" unicode="-" horiz-adv-x="241" 
d="M217 283v48h-193v-48h193z" />
    <glyph glyph-name="period" unicode="." horiz-adv-x="193" 
d="M137 0v102h-82v-102h82z" />
    <glyph glyph-name="slash" unicode="/" horiz-adv-x="342" 
d="M323 780h-53l-251 -776h56z" />
    <glyph glyph-name="zero" unicode="0" 
d="M388 379q0 186 -49 293q-48 108 -127 108t-127 -108q-49 -107 -49 -293q0 -187 49 -294q48 -108 127 -108t127 108q49 107 49 294zM329 379q0 -138 -27 -243q-28 -106 -90 -106q-61 0 -88 106q-28 103 -28 243q0 138 28 243q27 107 88 107t90 -107q27 -107 27 -243z" />
    <glyph glyph-name="one" unicode="1" 
d="M250 0v758h-53l-103 -75v-59l97 60v-684h59zM55 57v-57h311v57h-251v0h-60z" />
    <glyph glyph-name="two" unicode="2" 
d="M366 0v57h-251v21q0 64 28 129.5t83 134.5l23 29q11 11 23.5 27t29.5 38q16 22 27 42.5t16 40.5q10 39 10 80q0 75 -34 128q-35 53 -115 53q-45 0 -73 -18q-29 -17 -46 -46q-17 -31 -17 -62v-24h56v24q0 30 19 52q20 23 59 23q43 0 67 -37q23 -36 23 -85q0 -46 -18 -89
q-8 -21 -27.5 -54t-54.5 -75l-33 -39q-29 -34 -49.5 -69.5t-32.5 -70.5q-24 -72 -24 -132v-78h311z" />
    <glyph glyph-name="three" unicode="3" 
d="M355 218q0 79 -29 130q-29 52 -87 78q37 18 57 45q19 28 30 63q10 34 10 77q0 75 -35 122q-36 47 -105 47q-74 0 -105 -40q-32 -43 -32 -90v-19h55v19q0 23 10 42q9 20 28 28q19 9 41 9q38 0 61 -32q23 -34 23 -89q0 -43 -14 -80q-16 -38 -38 -59q-24 -24 -65 -24h-36
v-54h29q72 0 108 -54q36 -53 36 -132q0 -51 -12 -94t-35 -63q-24 -19 -53 -19q-37 0 -62 20q-25 19 -25 59v20h-56v-19q0 -51 33 -91q33 -41 105 -41q82 0 123 75q40 74 40 166z" />
    <glyph glyph-name="four" unicode="4" 
d="M391 245v48h-68v465h-57l-232 -451v-62h232v-245h57v245h68zM264 292h-170l170 340v-340z" />
    <glyph glyph-name="five" unicode="5" 
d="M360 224q0 73 -21 124q-21 50 -62 79t-115 29h-15v246h196v56h-247v-356h44q96 0 130 -55q32 -55 32 -135q0 -71 -25 -128q-24 -57 -74 -57q-38 0 -60 21t-22 53v20h-57v-19q0 -51 38 -89q39 -36 101 -36q80 0 119 75q38 78 38 172z" />
    <glyph glyph-name="six" unicode="6" 
d="M378 217q0 98 -37 165q-38 68 -99 68q-24 0 -44 -10q-11 -5 -20.5 -12t-20.5 -17q-10 -11 -20 -25t-21 -34v28q-1 48 3.5 93t12.5 90q17 88 45 127t67 39q31 0 48 -19q16 -19 16 -41v-19h57v18q0 44 -31 78t-92 34q-90 0 -138 -110q-48 -111 -48 -296q0 -130 21 -220
q11 -45 27 -77.5t36 -55.5q42 -44 89 -44q42 0 76 31q35 32 54 86t19 123zM319 221q0 -84 -26 -137q-26 -54 -64 -54q-28 0 -51 22q-23 24 -36 68q-13 43 -13 94q0 75 27 129t70 54q40 0 66 -47q27 -48 27 -129z" />
    <glyph glyph-name="seven" unicode="7" 
d="M374 675v83h-326v-56h278l-12 -25q-44 -95 -108 -243q-32 -75 -51.5 -133t-27.5 -100q-15 -84 -15 -167v-34h62v38q0 48 9 114q4 33 17 81.5t35 112.5q23 64 44 118t42 99l41 87l4 8t8 17z" />
    <glyph glyph-name="eight" unicode="8" 
d="M374 205q0 64 -25 120q-24 57 -74 90q40 28 60 71t20 97t-18 101q-20 49 -53 72q-35 24 -73 24t-72 -24q-34 -23 -52 -71t-18 -101q0 -54 20 -97q19 -41 59 -71q-48 -34 -74 -91q-24 -57 -24 -120q0 -57 20 -115q21 -57 55 -85q32 -28 87 -28q54 0 88 28q35 29 54 85
q20 57 20 115zM297 587q0 -57 -24 -99q-24 -43 -62 -43q-37 0 -61 43q-24 42 -24 99q0 63 26 101q25 39 59 39t60 -39q26 -38 26 -101zM317 205q0 -43 -14 -88q-12 -42 -38 -65q-26 -21 -54 -21t-53 21q-25 22 -39 65q-13 42 -13 88q0 44 14 91q14 43 39 68q24 24 52 24
q27 0 53 -24q24 -25 39 -68q15 -46 14 -91z" />
    <glyph glyph-name="nine" unicode="9" 
d="M368 384q0 130 -21 219q-23 91 -64 133q-40 44 -89 44q-41 0 -75 -31q-33 -30 -53 -86q-20 -57 -20 -124q0 -95 37 -164q37 -68 99 -68q23 0 44 9q19 9 41 30q22 22 42 61l-1 -29q-1 -48 -4.5 -93t-11.5 -90q-18 -89 -46 -127q-29 -39 -66 -39q-33 0 -49 19
q-16 21 -16 41v20h-55v-19q0 -45 30 -79q32 -34 92 -34q90 0 138 110q48 111 48 297zM294 543q0 -75 -27 -129t-69 -54q-39 0 -66 47q-27 48 -27 130q0 79 26 136q25 55 63 55q26 0 51 -23q22 -22 36 -68q13 -43 13 -94z" />
    <glyph glyph-name="colon" unicode=":" horiz-adv-x="193" 
d="M137 444v101h-82v-101h82zM137 0v102h-82v-102h82z" />
    <glyph glyph-name="semicolon" unicode=";" horiz-adv-x="193" 
d="M137 444v101h-82v-101h82zM135 29v71h-80v-100h40q0 -14 -1 -27t-3 -24q-4 -22 -12 -44q-5 -11 -10 -19.5t-13 -16.5v-42q28 19 44 45q19 30 26 61q9 33 9 96z" />
    <glyph glyph-name="less" unicode="&#x3c;" 
d="M375 473v55l-326 -257l325 -254v56l-255 197z" />
    <glyph glyph-name="equal" unicode="=" 
d="M386 332v48h-347v-48h347zM386 165v48h-347v-48h347z" />
    <glyph glyph-name="greater" unicode="&#x3e;" 
d="M375 276l-326 252v-51l256 -200l-256 -204v-56z" />
    <glyph glyph-name="question" unicode="?" horiz-adv-x="362" 
d="M301 623q0 43 -17 77q-16 37 -49 59q-32 21 -68 21t-65 -16q-30 -17 -45 -46q-16 -28 -16 -56v-4h58v4q0 36 16 52t45 16q35 0 59 -27q23 -29 23 -69q0 -26 -10 -49q-5 -13 -13.5 -29.5t-20.5 -36.5l-24 -41q-9 -16 -17.5 -36t-16.5 -45q-16 -49 -16 -129v-46h59v63
q0 70 14 104q6 17 14.5 32.5t19.5 30.5l21 31q34 49 42 83q7 32 7 57zM182 0v63h-58v-63h58z" />
    <glyph glyph-name="at" unicode="@" horiz-adv-x="554" 
d="M515 309q0 93 -29 171q-28 77 -79 122q-52 44 -122 44q-78 0 -132 -51q-56 -51 -84 -145q-15 -48 -22 -98.5t-7 -106.5q0 -55 7 -106t22 -99q30 -96 86 -146q55 -51 122 -51q61 0 117 47v57q-60 -61 -118 -61q-49 0 -99 44q-50 46 -74 135q-12 45 -17.5 91.5t-5.5 94.5
q-1 97 24 181t73 127q47 43 106 43q52 0 99 -38q47 -40 70 -109q25 -68 25 -160q0 -81 -21 -127q-21 -47 -48 -47q-19 0 -31 23q-11 25 -11 91v212h-61q-59 0 -89 -24q-28 -21 -48 -75q-18 -53 -18 -106q0 -21 3 -40t8 -37q9 -35 31 -55q19 -20 43 -20q22 0 43 22
q22 22 39 60q4 -49 27 -70q24 -21 51 -21q33 0 60 29q27 27 44 80q8 26 12 55.5t4 63.5zM318 253q-29 -71 -46 -90q-16 -19 -33 -19q-13 0 -25 20q-12 21 -12 72q0 23 1.5 43t6.5 38q7 34 26 61q11 14 23 20q13 6 39 6h20v-151z" />
    <glyph glyph-name="A" unicode="A" horiz-adv-x="463" 
d="M453 0l-182 758h-63l-198 -758h59l56 216h208l52 -216h68zM317 273h-177l92 357z" />
    <glyph glyph-name="B" unicode="B" horiz-adv-x="405" 
d="M370 202q0 64 -27 115t-86 72q55 43 74 94q21 54 21 107q0 49 -16 87q-15 40 -44 60q-30 21 -118 21h-127v-758h143q81 0 112 28q31 26 50 74q18 46 18 100zM291 589q0 -41 -14 -85q-13 -40 -37 -64q-11 -11 -29 -19t-41 -8h-60v295h81q57 0 78 -35q22 -34 22 -84z
M309 190q0 -58 -24 -98q-23 -42 -86 -42h-89v313h47q64 0 92 -25q30 -24 45 -63t15 -85z" />
    <glyph glyph-name="C" unicode="C" horiz-adv-x="415" 
d="M390 623v3q0 36 -20 78q-20 40 -53 58q-34 19 -79 19q-93 0 -150 -101q-58 -101 -58 -301q0 -199 58 -301q59 -101 149 -101q44 0 79 18q34 20 53 58q19 39 19 78v5h-55v-5q0 -39 -21 -72q-21 -32 -72 -32q-73 0 -110 99q-36 97 -36 253q0 153 36 252t110 99q29 0 50 -12
q20 -13 32 -39q11 -25 11 -52v-4h57z" />
    <glyph glyph-name="D" unicode="D" horiz-adv-x="446" 
d="M417 382q0 121 -26 208q-13 42 -30 74t-40 52q-45 42 -142 42h-133v-758h142q91 0 137 49t69 134q23 86 23 199zM353 373q0 -107 -18 -177t-52 -103q-33 -33 -99 -33h-75v646h73q72 0 105 -37q34 -37 50 -113q16 -74 16 -183z" />
    <glyph glyph-name="E" unicode="E" horiz-adv-x="366" 
d="M335 0v56h-226v313h183v53h-183v280h209v56h-272v-758h289z" />
    <glyph glyph-name="F" unicode="F" horiz-adv-x="352" 
d="M318 702v56h-272v-758h63v351h183v53h-183v298h209z" />
    <glyph glyph-name="G" unicode="G" horiz-adv-x="429" 
d="M390 34v326h-164v-47h105v-252q-53 -31 -94 -31q-68 0 -106 95q-20 47 -29 111t-9 145q0 164 37 256q36 93 107 93q28 0 48 -13q21 -12 33 -35q13 -22 13 -48v-5h57v4q0 36 -21 74q-20 37 -56 55q-35 18 -78 18q-64 0 -108 -47q-45 -45 -71 -130q-12 -42 -18.5 -100
t-6.5 -133q0 -133 27 -218q14 -42 31 -74.5t40 -55.5q45 -45 117 -45q69 0 146 57z" />
    <glyph glyph-name="H" unicode="H" horiz-adv-x="439" 
d="M393 0v758h-63v-351h-221v351h-63v-758h63v358h221v-358h63z" />
    <glyph glyph-name="I" unicode="I" horiz-adv-x="155" 
d="M109 0v758h-63v-758h63z" />
    <glyph glyph-name="J" unicode="J" horiz-adv-x="313" 
d="M266 236v522h-61v-540q0 -101 -8 -133q-8 -31 -24 -44q-17 -15 -36 -15q-18 0 -33 9q-15 7 -23 25q-3 8 -5 17t-2 20v5h-62v-4q0 -45 29 -83q30 -38 99 -38q43 0 68 22q24 21 41 67q17 48 17 170z" />
    <glyph glyph-name="K" unicode="K" horiz-adv-x="422" 
d="M412 0l-230 402l199 356h-71l-202 -362v362h-63v-758h63v395l225 -395h79z" />
    <glyph glyph-name="L" unicode="L" horiz-adv-x="371" 
d="M361 0v56h-253v702h-63v-758h316z" />
    <glyph glyph-name="M" unicode="M" horiz-adv-x="501" 
d="M456 0v758h-61l-138 -594l-150 594h-61v-758h54v456l-2 124h1l28 -125l91 -367h73l78 364l32 140v0l-1 -137v-455h56z" />
    <glyph glyph-name="N" unicode="N" horiz-adv-x="451" 
d="M405 0v758h-58v-538l1 -59l-20 60l-221 537h-62v-758h59v536l-1 61l18 -56l221 -541h63z" />
    <glyph glyph-name="O" unicode="O" horiz-adv-x="468" 
d="M438 379q0 193 -57 297q-56 104 -147 104t-147 -104q-57 -104 -57 -297q0 -194 57 -297q57 -105 147 -105t147 105q57 103 57 297zM375 379q0 -161 -37 -254q-38 -96 -104 -96t-103 96q-37 93 -37 254q0 159 37 254q37 96 103 96t104 -96q37 -95 37 -254z" />
    <glyph glyph-name="P" unicode="P" horiz-adv-x="371" 
d="M351 555q0 63 -16 108q-17 47 -48 71q-32 24 -107 24h-134v-758h63v311h59q92 0 137 70q46 70 46 174zM288 555q0 -79 -27 -136q-26 -56 -110 -56h-42v345h73q62 0 85 -42q21 -42 21 -111z" />
    <glyph glyph-name="Q" unicode="Q" horiz-adv-x="468" 
d="M438 379q0 193 -57 297q-56 104 -147 104t-147 -104q-57 -104 -57 -297q0 -194 57 -297q57 -105 147 -105h7q4 0 9 1q-21 -45 -21 -87q0 -33 19 -53q19 -21 48 -21q18 0 40 16v30q-13 -10 -25 -10q-20 0 -29 12q-8 14 -8 27q0 5 5 22.5t11.5 36t11.5 33l5 14.5h1
q41 25 73 84q57 103 57 297zM375 379q0 -161 -37 -254q-38 -96 -104 -96t-103 96q-37 93 -37 254q0 159 37 254q37 96 103 96t104 -96q37 -95 37 -254z" />
    <glyph glyph-name="R" unicode="R" horiz-adv-x="386" 
d="M390 0l-76 220q-4 12 -9 24.5t-11 26.5q-5 14 -10 23.5t-9 16.5q-7 11 -24 25q21 14 36.5 28.5t25.5 31.5q21 32 31 74q6 20 8.5 41.5t2.5 44.5q0 58 -16 103q-14 46 -43 73q-29 26 -83 26h-148v-758h64v334h63q20 -29 35.5 -62t28.5 -71l67 -201h67zM292 561
q0 -45 -11 -87q-12 -40 -32 -62q-21 -21 -60 -21h-61v317h66q43 0 62 -22q8 -11 15 -24.5t12 -29.5q9 -32 9 -71z" />
    <glyph glyph-name="S" unicode="S" horiz-adv-x="386" 
d="M360 192q0 61 -24 112q-12 26 -35.5 50t-58.5 50l-30 22q-23 17 -38 30.5t-25 23.5q-19 22 -29 51q-10 30 -10 66q0 53 22 93t69 40q24 0 41 -8q17 -7 29 -25q9 -18 9 -36v-5h63v4q0 48 -30 84q-32 36 -106 36q-83 0 -120 -58q-39 -59 -39 -142q0 -49 13 -87
q13 -40 37 -70q13 -16 32.5 -31t43.5 -33l25 -18q49 -36 73 -70q24 -35 24 -91q0 -69 -28 -110q-27 -42 -69 -42q-47 0 -75 24q-28 25 -28 87v5h-60v-5q0 -49 19 -87q18 -40 54 -58q37 -17 89 -17q57 0 90 27q35 28 53 79q19 51 19 109z" />
    <glyph glyph-name="T" unicode="T" horiz-adv-x="408" 
d="M398 709v49h-388v-49h164v-709h62v709h162z" />
    <glyph glyph-name="U" unicode="U" 
d="M385 280v478h-57v-469q0 -69 -3.5 -113.5t-9.5 -65.5q-14 -45 -38 -63q-25 -19 -59 -19q-35 0 -63 19q-27 18 -41 58q-13 36 -13 148v505h-62v-501q0 -126 21 -178t64 -77q41 -25 94 -25q56 0 91 31q36 31 56 85q20 55 20 187z" />
    <glyph glyph-name="V" unicode="V" horiz-adv-x="463" 
d="M453 758h-58l-164 -634l-153 634h-68l183 -758h64z" />
    <glyph glyph-name="W" unicode="W" horiz-adv-x="602" 
d="M578 758h-54l-80 -537l-11 -102h-1l-12 106l-86 533h-61l-88 -534l-12 -103h-1l-12 105l-77 532h-59l109 -758h65l90 537l12 110v0l13 -104l88 -543h65z" />
    <glyph glyph-name="X" unicode="X" horiz-adv-x="388" 
d="M379 0l-149 393l148 365h-63l-115 -285l-109 285h-69l142 -372l-155 -386h68l118 296l113 -296h71z" />
    <glyph glyph-name="Y" unicode="Y" horiz-adv-x="388" 
d="M380 758h-60l-119 -305l-120 305h-73l156 -401v-357h63v357z" />
    <glyph glyph-name="Z" unicode="Z" horiz-adv-x="366" 
d="M338 0v66h-254l249 611v81h-292v-57h234l-251 -610v-91h314z" />
    <glyph glyph-name="bracketleft" unicode="[" horiz-adv-x="284" 
d="M229 -182v49h-104v887h104v49h-157v-985h157z" />
    <glyph glyph-name="backslash" unicode="\" horiz-adv-x="342" 
d="M323 5l-249 775h-55l250 -775h54z" />
    <glyph glyph-name="bracketright" unicode="]" horiz-adv-x="284" 
d="M211 -182v985h-156v-49h104v-887h-104v-49h156z" />
    <glyph glyph-name="asciicircum" unicode="^" 
d="M385 213l-173 542l-172 -542h53l120 375l119 -375h53z" />
    <glyph glyph-name="underscore" unicode="_" horiz-adv-x="350" 
d="M365 -260v48h-386v-48h386z" />
    <glyph glyph-name="grave" unicode="`" horiz-adv-x="376" 
d="M251 666l-70 122h-56l81 -122h45z" />
    <glyph glyph-name="a" unicode="a" horiz-adv-x="352" 
d="M320 0q-5 26 -7.5 48.5t-2.5 42.5q-1 20 -1 38v37v217q0 88 -15 121q-13 31 -44 51q-31 19 -69 19t-69 -16t-51 -50q-19 -32 -19 -62v-7h60v8q0 31 20 56q19 25 55 25q31 0 52 -26t21 -89v-77l-31 -9q-102 -30 -143 -74q-42 -42 -42 -121q0 -68 29 -108q30 -39 71 -39
q24 0 50 15q25 14 65 72q0 -30 9 -72h62zM251 224q0 -59 -13 -99q-14 -42 -37 -67q-25 -25 -48 -25q-15 0 -28 12q-16 11 -22 32q-8 22 -8 45q0 47 25 83q13 17 41 34.5t72 38.5l18 8v-62z" />
    <glyph glyph-name="b" unicode="b" horiz-adv-x="389" 
d="M359 280q0 86 -18 155q-18 70 -51 104q-33 35 -72 35q-22 0 -42 -11q-10 -6 -19 -14t-17 -19q-17 -21 -36 -69v327h-57v-623v-13t-1 -21q0 -12 -0.5 -28t-1.5 -36q0 -20 -0.5 -36.5t-1.5 -30.5h59q1 11 1 25t1 31l2 41q18 -52 33 -73q18 -21 35 -29q19 -10 42 -10
q67 0 106 84q38 82 38 211zM300 275q0 -122 -28 -179q-29 -60 -71 -60q-47 0 -72 68q-25 66 -25 172q0 35 2.5 67.5t8.5 61.5q12 58 36 88t52 30q39 0 68 -54q29 -52 29 -194z" />
    <glyph glyph-name="c" unicode="c" horiz-adv-x="347" 
d="M319 428v19q0 35 -17 64q-19 31 -46 46q-29 17 -68 17q-75 0 -117 -78q-41 -79 -41 -217q0 -137 41 -216q40 -78 117 -78q39 0 67 16q27 16 45 48q17 30 17 62v5h-53v-6q0 -28 -17 -53q-18 -22 -55 -22q-43 0 -73 57q-30 58 -30 187t30 186q28 58 73 58q37 0 54 -23
q18 -23 18 -52v-20h55z" />
    <glyph glyph-name="d" unicode="d" horiz-adv-x="383" 
d="M342 0v788h-58v-325q-9 26 -17.5 43t-16.5 27q-15 21 -35 30q-20 11 -42 11q-67 0 -106 -84q-38 -87 -38 -212q0 -86 18 -155q18 -68 51 -103q32 -35 72 -35q21 0 41 7q19 7 37 28q17 20 35 72v-92h59zM285 281q0 -70 -12 -128t-36 -88q-23 -29 -51 -29q-42 0 -71 53
q-27 54 -27 194q0 117 28 179q28 60 71 60q46 0 72 -68q26 -69 26 -173z" />
    <glyph glyph-name="e" unicode="e" horiz-adv-x="366" 
d="M332 283v29q0 100 -19 154q-18 55 -50 81q-32 27 -72 27q-70 0 -117 -85q-45 -84 -45 -214q0 -126 43 -208q42 -82 120 -82q39 0 68 16q30 16 48 48q18 31 18 62v19h-53v-20q0 -28 -18 -52q-17 -23 -57 -23q-54 -2 -84 69q-30 70 -30 179h248zM279 328h-193q9 90 37 140
q29 50 61 50q27 0 49 -22q21 -21 33 -65q13 -42 13 -91v-12z" />
    <glyph glyph-name="f" unicode="f" horiz-adv-x="249" 
d="M241 729v52q-28 7 -49 7q-52 0 -84 -47t-32 -159v-24h-50v-48h50v-510h58v510h101v48h-100v44q0 85 20 108q19 23 47 23q8 0 17.5 -1t21.5 -3z" />
    <glyph glyph-name="g" unicode="g" horiz-adv-x="388" 
d="M342 102v456h-58v-86q-26 62 -52 81q-26 21 -58 21q-43 0 -77 -34q-32 -35 -50 -103q-18 -69 -18 -153q0 -126 40 -206q40 -78 102 -78q38 0 67 29q28 28 46 86v-72q0 -105 -14 -147q-14 -41 -35 -59q-22 -19 -53 -19q-39 0 -63 21q-25 21 -25 55v7h-53v-6q0 -33 17 -60
q16 -29 51 -46q34 -17 76 -17q44 0 79 27q33 26 56 80q11 27 16.5 82.5t5.5 140.5zM286 298q0 -55 -7 -99t-21 -79q-27 -70 -72 -70q-27 0 -51 28q-25 28 -35 80q-12 54 -12 125q0 57 7 100.5t21 75.5q28 63 72 63q38 0 69 -63q29 -63 29 -161z" />
    <glyph glyph-name="h" unicode="h" horiz-adv-x="372" 
d="M330 0v355q0 47 -3.5 80t-10.5 54q-15 43 -40 63q-26 22 -59 22q-23 0 -41 -12q-19 -10 -37 -33q-17 -21 -35 -67v326h-58v-788h58v289q0 82 14 129q13 45 36 71q24 26 49 26q20 0 39 -19q17 -20 24 -52q6 -33 6 -112v-332h58z" />
    <glyph glyph-name="i" unicode="i" horiz-adv-x="149" 
d="M104 707v64h-58v-64h58zM104 0v558h-58v-558h58z" />
    <glyph glyph-name="j" unicode="j" horiz-adv-x="176" 
d="M128 710v61h-58v-61h58zM127 0v558h-57v-566q0 -92 -18 -114q-20 -24 -49 -24q-5 0 -11.5 0.5t-14.5 1.5l-13 2v-59q14 -5 26.5 -6.5t23.5 -1.5q33 0 60 24q29 24 41 65q12 40 12 120z" />
    <glyph glyph-name="k" unicode="k" horiz-adv-x="342" 
d="M333 0l-157 299l150 259h-67l-154 -266v496h-60v-788h60v292l154 -292h74z" />
    <glyph glyph-name="l" unicode="l" horiz-adv-x="149" 
d="M104 0v788h-58v-788h58z" />
    <glyph glyph-name="m" unicode="m" horiz-adv-x="569" 
d="M528 0v349q0 100 -13 139q-13 42 -37 64q-25 22 -54 22q-20 0 -38 -12q-18 -11 -36 -33q-17 -23 -35 -71q-14 53 -28 73q-13 21 -34 32q-20 11 -41 11q-20 0 -40 -11q-18 -11 -35 -33q-16 -22 -34 -73v101h-58v-558h59v286q0 78 12 125q7 23 15.5 42.5t20.5 33.5
q22 28 46 28q16 0 31 -15t21 -42q7 -27 7 -131v-327h59v286q0 83 13 128q12 46 35 73q22 28 47 28q17 0 31 -15q13 -16 20 -42q7 -27 7 -131v-327h59z" />
    <glyph glyph-name="n" unicode="n" horiz-adv-x="372" 
d="M330 0v355q0 47 -3.5 80t-10.5 54q-15 43 -40 63q-26 22 -59 22q-23 0 -41 -12q-19 -10 -37 -33q-17 -21 -35 -67v96h-58v-558h58v289q0 82 14 129q13 45 36 71q24 26 49 26q19 0 38 -19q17 -19 25 -52q6 -33 6 -112v-332h58z" />
    <glyph glyph-name="o" unicode="o" horiz-adv-x="386" 
d="M356 279q0 146 -48 221q-48 74 -115 74q-68 0 -116 -74q-48 -75 -48 -221q0 -147 48 -220q48 -74 116 -74q67 0 115 74q48 73 48 220zM298 279q0 -112 -29 -176q-28 -67 -76 -67t-76 67q-29 67 -29 176t29 176q28 67 76 67t76 -67q29 -64 29 -176z" />
    <glyph glyph-name="p" unicode="p" horiz-adv-x="384" 
d="M354 280q0 86 -18 155q-18 70 -51 104q-33 35 -73 35q-20 0 -42 -11q-10 -6 -19 -13.5t-17 -18.5q-18 -21 -34 -70v97h-58v-770h59v307q18 -52 33 -71q15 -20 35 -29q19 -10 41 -10q68 0 106 84q38 82 38 211zM295 275q0 -120 -28 -179q-27 -59 -71 -59q-47 0 -72 67
q-25 66 -25 172q0 68 11 129q12 58 36 88t52 30q38 0 68 -54q29 -55 29 -194z" />
    <glyph glyph-name="q" unicode="q" horiz-adv-x="383" 
d="M342 -212v770h-58v-95q-9 26 -17.5 43t-16.5 27q-15 21 -35 30q-20 11 -42 11q-67 0 -106 -84q-38 -87 -38 -212q0 -86 18 -155q18 -68 51 -103q32 -35 72 -35q22 0 41 10q22 11 37 29t34 67v-303h60zM285 281q0 -71 -12 -128q-12 -60 -36 -88q-24 -30 -51 -30
q-38 0 -68 54t-30 193q0 118 28 180q28 60 71 60q46 0 72 -68q26 -69 26 -173z" />
    <glyph glyph-name="r" unicode="r" horiz-adv-x="246" 
d="M241 502v61q-14 11 -32 11q-20 0 -39 -12q-9 -7 -18 -15.5t-17 -20.5q-9 -12 -16.5 -28.5t-15.5 -37.5v98h-58v-558h59v290q0 124 31 171q30 49 62 49q12 0 28 -4z" />
    <glyph glyph-name="s" unicode="s" horiz-adv-x="324" 
d="M293 165q0 34 -7 58q-4 12 -9 23t-13 19q-12 13 -21 20q-5 4 -19 11t-35 19l-20 12l-27 15q-28 14 -41 35q-12 19 -12 50q0 41 19 69q18 27 53 27q30 0 47 -16q9 -8 13.5 -21t4.5 -27l55 -2q0 22 -6.5 43.5t-20.5 38.5q-27 35 -90 35q-64 0 -97 -49q-33 -48 -33 -111
q0 -46 16.5 -79.5t52.5 -50.5l40 -19l19 -13l29 -17q44 -23 44 -88q0 -43 -22 -78q-22 -34 -59 -34q-40 0 -58 24q-8 12 -12.5 29.5t-4.5 36.5l-53 1q0 -21 4.5 -41.5t12.5 -35.5q17 -32 44 -47q14 -9 31.5 -13t38.5 -4q67 0 101 52q35 52 35 128z" />
    <glyph glyph-name="t" unicode="t" horiz-adv-x="282" 
d="M257 0v61q-36 -14 -51 -14q-22 0 -37 15q-14 13 -22 46q-4 16 -5.5 46t-1.5 71v286h102v47h-101v130l-58 -15v-115h-61v-48h61v-304q0 -95 13 -135q13 -43 39 -64q26 -22 58 -22q22 0 64 15z" />
    <glyph glyph-name="u" unicode="u" horiz-adv-x="371" 
d="M325 0v558h-57v-290q0 -81 -14 -129q-14 -47 -37 -71q-23 -26 -48 -26q-31 0 -50 27q-20 26 -20 156v333h-58v-353q0 -134 33 -177t81 -43q23 0 40 10q18 11 35 32q18 21 36 65v-92h59z" />
    <glyph glyph-name="v" unicode="v" horiz-adv-x="359" 
d="M352 558h-58l-113 -437l-112 437h-61l141 -558h58z" />
    <glyph glyph-name="w" unicode="w" horiz-adv-x="497" 
d="M487 558h-54l-61 -348l-12 -106h-1l-16 113l-68 341h-58l-62 -345l-11 -112h-1l-11 108l-62 349h-60l99 -558h60l64 359l13 103v0l12 -98l71 -364h59z" />
    <glyph glyph-name="x" unicode="x" horiz-adv-x="337" 
d="M321 0l-121 291l113 267h-59l-84 -198l-80 198h-66l113 -276l-120 -282h64l86 203l83 -203h71z" />
    <glyph glyph-name="y" unicode="y" horiz-adv-x="364" 
d="M355 558h-56l-109 -415l-116 415h-63l151 -539l-6 -24q-10 -42 -18.5 -68.5t-14.5 -38.5q-12 -25 -31 -36q-18 -12 -42 -12h-33v-52h43q35 0 59 16q23 15 42 52q20 38 50 150z" />
    <glyph glyph-name="z" unicode="z" horiz-adv-x="352" 
d="M318 0v51h-229l222 433v74h-270v-48l216 -1l-226 -431v-78h287z" />
    <glyph glyph-name="braceleft" unicode="{" horiz-adv-x="287" 
d="M215 -182v50h-7q-16 0 -30 23q-13 23 -13 68v14q0 6 1 12l3 25l7 62q4 35 5.5 58.5t1.5 35.5q0 41 -15 82t-50 62q34 19 51 61q15 42 15 83q0 12 -2 36t-6 59l-7 63l-3 26q-1 5 -1.5 11.5t-0.5 14.5q0 45 14 68q13 23 30 23h7v48h-5q-41 0 -70 -41t-29 -107
q0 -23 1.5 -47t5.5 -49l8 -52q4 -23 5.5 -45t1.5 -42q0 -32 -11 -59q-11 -26 -40 -26h-17v-49h17q31 0 41 -26q10 -24 10 -59q0 -21 -1.5 -42.5t-5.5 -44.5l-8 -52q-4 -25 -5.5 -48.5t-1.5 -46.5q0 -67 29 -108q30 -41 70 -41h5z" />
    <glyph glyph-name="bar" unicode="|" horiz-adv-x="157" 
d="M104 4v776h-51v-776h51z" />
    <glyph glyph-name="braceright" unicode="}" horiz-adv-x="287" 
d="M222 287v48h-17q-29 0 -40 26q-10 28 -10 59q0 40 6 87l7 52q4 25 6 48.5t2 46.5q0 67 -29 108t-70 41h-4v-49h6q17 0 30 -23q14 -23 14 -67v-15q0 -6 -1 -12l-3 -26l-8 -62q-4 -35 -5.5 -58.5t-1.5 -35.5q0 -43 15 -83q15 -42 50 -62q-36 -22 -50 -62q-15 -41 -15 -82
q0 -12 1.5 -35.5t5.5 -58.5l7 -62l3 -25q1 -5 1.5 -11.5t0.5 -14.5q0 -45 -14 -68q-13 -23 -31 -23h-5v-50h4q41 0 70 41q30 40 30 108q0 23 -2 46.5t-6 48.5l-8 52q-4 23 -5.5 44.5t-1.5 41.5q0 33 11 60q9 27 40 27h17z" />
    <glyph glyph-name="asciitilde" unicode="~" 
d="M384 330v7h-38v-8q0 -30 -11 -58q-12 -26 -34 -26q-21 0 -56 29l-37 33q-13 11 -22.5 18t-15.5 11t-11.5 6t-10.5 4q-9 4 -20 4q-39 0 -64 -40q-24 -41 -24 -94v-7h37v8q0 17 6 40q6 21 17 32q10 10 23 10q25 0 58 -30l31 -29q49 -45 81 -45t62 33q29 32 29 102z" />
    <glyph glyph-name="quotesinglbase" unicode="&#x201a;" horiz-adv-x="193" 
d="M136 29v71h-79v-100h39q0 -31 -4 -51q-3 -23 -12 -44q-7 -19 -22 -36v-42q25 17 44 45q8 14 14.5 29t11.5 32q8 35 8 96z" />
    <glyph glyph-name="florin" unicode="&#x192;" 
d="M371 781q-14 4 -26.5 5.5t-21.5 1.5q-116 0 -144 -228l-9 -66h-49l-7 -49h51l-80 -627h59l78 623h102l6 53h-102l10 94q11 95 34 120q23 26 53 26q17 0 40 -4z" />
    <glyph glyph-name="quotedblbase" unicode="&#x201e;" horiz-adv-x="313" 
d="M256 29v71h-79v-100h39q0 -31 -4 -51q-5 -24 -12 -44t-22 -35v-43q28 19 44 45q9 14 15 29t11 32q8 35 8 96zM136 29v71h-80v-100h40q0 -14 -1 -27t-3 -24q-4 -22 -12 -44q-5 -11 -10 -19.5t-13 -16.5v-42q28 19 44 45q19 30 26 61q9 33 9 96z" />
    <glyph glyph-name="ellipsis" unicode="&#x2026;" horiz-adv-x="656" 
d="M587 0v102h-82v-102h82zM369 0v102h-82v-102h82zM151 0v102h-82v-102h82z" />
    <glyph glyph-name="dagger" unicode="&#x2020;" 
d="M346 489v85l-107 -15l10 199h-70l10 -199l-111 15v-84l111 12l-10 -684h71l-10 683z" />
    <glyph glyph-name="daggerdbl" unicode="&#x2021;" 
d="M347 491v83l-110 -15l10 199h-69l10 -199l-111 15v-84l111 13v-421l-110 13v-95l110 18l-10 -200h70l-11 200l110 -18v94l-111 -14v423z" />
    <glyph glyph-name="circumflex" unicode="&#x2c6;" horiz-adv-x="375" 
d="M266 659l-59 129h-38l-60 -130h52l27 50l25 -49h53z" />
    <glyph glyph-name="perthousand" unicode="&#x2030;" horiz-adv-x="833" 
d="M813 221q0 103 -31 162q-30 59 -76 59t-77 -60q-31 -59 -31 -161q0 -103 31 -161q31 -60 77 -60t76 60q31 58 31 161zM556 221q0 100 -31 162q-32 59 -77 59q-46 0 -77 -60q-31 -62 -31 -161q0 -101 31 -161t77 -60q45 0 77 60q31 60 31 161zM235 537q0 102 -31 161
q-32 60 -77 60q-46 0 -76 -60q-31 -59 -31 -161q0 -103 31 -161q30 -60 76 -60q45 0 77 60q31 58 31 161zM482 758h-54l-343 -758h61zM762 221q0 -77 -16 -125q-15 -50 -40 -50q-24 0 -41 50q-15 49 -15 125q0 75 15 125q17 50 41 50q25 0 40 -50q16 -48 16 -125zM504 221
q0 -76 -15 -125q-17 -50 -41 -50t-41 50q-15 49 -15 125q0 75 15 125q17 50 41 50t41 -50q15 -50 15 -125zM184 537q0 -38 -4 -69.5t-12 -56.5q-15 -49 -41 -49q-25 0 -40 49t-15 126q0 74 15 125q15 49 40 49q26 0 41 -49q8 -26 12 -56.5t4 -68.5z" />
    <glyph glyph-name="Scaron" unicode="&#x160;" horiz-adv-x="386" 
d="M360 192q0 61 -24 112q-12 26 -35.5 50t-58.5 50l-30 22q-23 17 -38 30.5t-25 23.5q-19 22 -29 51q-10 30 -10 66q0 53 22 93t69 40q24 0 41 -8q17 -7 29 -25q9 -18 9 -36v-5h63v4q0 48 -30 84q-32 36 -106 36q-83 0 -120 -58q-39 -59 -39 -142q0 -49 13 -87
q13 -40 37 -70q13 -16 32.5 -31t43.5 -33l25 -18q49 -36 73 -70q24 -35 24 -91q0 -69 -28 -110q-27 -42 -69 -42q-47 0 -75 24q-28 25 -28 87v5h-60v-5q0 -49 19 -87q18 -40 54 -58q37 -17 89 -17q57 0 90 27q35 28 53 79q19 51 19 109zM227 927h-46l-45 -31l-45 31h-45
l70 -76h39z" />
    <glyph glyph-name="guilsinglleft" unicode="&#x2039;" horiz-adv-x="204" 
d="M177 76l-89 196l87 197h-50l-95 -160v-74l92 -159h55z" />
    <glyph glyph-name="OE" unicode="&#x152;" horiz-adv-x="695" 
d="M663 0v56h-226v318h184v48h-184v280h210v56h-272v-83q-32 61 -64 83q-31 22 -73 22q-96 0 -153 -105q-56 -107 -56 -296q0 -190 56 -296q55 -106 152 -106q37 0 71 20q31 18 65 82v-79h290zM377 379q0 -158 -38 -255q-39 -96 -105 -96q-67 0 -104 96q-37 95 -37 255
q0 159 37 254q37 96 104 96q66 0 105 -96q38 -97 38 -254z" />
    <glyph glyph-name="quoteleft" unicode="&#x2018;" horiz-adv-x="193" 
d="M137 506v103h-40q0 32 4 55q3 22 11 47q7 20 22 37v44q-29 -19 -44 -47q-9 -14 -15 -30.5t-11 -33.5q-8 -37 -8 -101v-74h81z" />
    <glyph glyph-name="quoteright" unicode="&#x2019;" horiz-adv-x="193" 
d="M137 726v77h-81v-101h41q0 -17 -1 -32t-3 -29q-5 -27 -12 -51q-9 -24 -24 -42v-44q26 17 45 49q17 31 26 67t9 106z" />
    <glyph glyph-name="quotedblleft" unicode="&#x201c;" horiz-adv-x="313" 
d="M257 491v103h-40q0 31 3 55q5 25 12 47q7 21 23 37v45q-28 -18 -45 -47q-8 -15 -14.5 -31t-10.5 -34q-9 -35 -9 -102v-73h81zM136 491v103h-40q0 32 4 55q5 25 12 47q8 23 22 37v44q-28 -19 -45 -47q-8 -15 -14.5 -31t-10.5 -33q-5 -18 -6.5 -43t-1.5 -59v-73h80z" />
    <glyph glyph-name="quotedblright" unicode="&#x201d;" horiz-adv-x="313" 
d="M257 711v77h-79v-101h39q0 -17 -1 -31.5t-3 -28.5q-5 -27 -12 -51q-5 -12 -10 -22.5t-13 -18.5v-46q28 20 45 49q8 16 14.5 32.5t10.5 34.5q9 36 9 106zM137 711v77h-81v-101h41q0 -17 -1 -32t-3 -29q-5 -27 -12 -51q-8 -23 -24 -42v-44q27 18 45 49q18 32 26 67
q9 36 9 106z" />
    <glyph glyph-name="bullet" unicode="&#x2022;" horiz-adv-x="376" 
d="M284 404q0 25 -13 51q-7 12 -16.5 21t-20.5 17q-23 13 -50 13q-29 0 -51 -14q-23 -13 -37 -38q-13 -24 -13 -50q0 -25 13 -51q15 -24 37 -37q22 -14 51 -14q27 0 50 13q24 14 37 38q13 26 13 51z" />
    <glyph glyph-name="endash" unicode="&#x2013;" horiz-adv-x="327" 
d="M308 271v49h-289v-49h289z" />
    <glyph glyph-name="emdash" unicode="&#x2014;" horiz-adv-x="655" 
d="M636 271v49h-617v-49h617z" />
    <glyph glyph-name="tilde" unicode="&#x2dc;" horiz-adv-x="376" 
d="M288 754h-38q0 -56 -18 -56q-10 0 -36 20l-13 14q-22 22 -39 22q-25 0 -40 -27q-16 -28 -16 -85h38q0 48 22 48q9 0 26 -13l14 -14q20 -23 42 -23q17 0 30 13q14 14 20 35q7 21 8 66z" />
    <glyph glyph-name="trademark" unicode="&#x2122;" horiz-adv-x="482" 
d="M456 406v352h-39l-62 -247l-68 247h-37v-350h36v207l40 -152h53l38 152v-209h39zM223 725v33h-196v-33h78v-319h40v319h78z" />
    <glyph glyph-name="scaron" unicode="&#x161;" horiz-adv-x="324" 
d="M293 165q0 34 -7 58q-4 12 -9 23t-13 19q-12 13 -21 20q-5 4 -19 11t-35 19l-20 12l-27 15q-28 14 -41 35q-12 19 -12 50q0 41 19 69q18 27 53 27q30 0 47 -16q9 -8 13.5 -21t4.5 -27l55 -2q0 22 -6.5 43.5t-20.5 38.5q-27 35 -90 35q-64 0 -97 -49q-33 -48 -33 -111
q0 -46 16.5 -79.5t52.5 -50.5l40 -19l19 -13l29 -17q44 -23 44 -88q0 -43 -22 -78q-22 -34 -59 -34q-40 0 -58 24q-8 12 -12.5 29.5t-4.5 36.5l-53 1q0 -21 4.5 -41.5t12.5 -35.5q17 -32 44 -47q14 -9 31.5 -13t38.5 -4q67 0 101 52q35 52 35 128zM250 788h-47l-44 -81
l-43 81h-46l56 -126h67z" />
    <glyph glyph-name="guilsinglright" unicode="&#x203a;" horiz-adv-x="204" 
d="M173 231v82l-90 156h-54l87 -195l-88 -197h54z" />
    <glyph glyph-name="oe" unicode="&#x153;" horiz-adv-x="634" 
d="M600 283v29q0 100 -19 154q-20 57 -51 82q-32 26 -72 26q-38 0 -70 -25q-32 -24 -60 -84q-27 61 -62 84q-35 25 -74 25q-65 0 -114 -73q-49 -74 -49 -222q0 -147 49 -222q49 -72 114 -72q40 0 78 27q37 28 57 84q45 -111 136 -111q37 0 66 16q30 16 48 48q18 31 18 61v5
h-54v-6q0 -21 -18 -48q-17 -26 -56 -26q-54 -2 -84 69q-31 69 -31 179h248zM547 328h-192q9 87 37 136q26 48 61 50q25 0 47 -21q23 -21 35 -68t12 -86v-11zM298 279q0 -112 -29 -176q-28 -67 -76 -67t-76 67q-29 67 -29 176t29 176q28 67 76 67t76 -67q29 -64 29 -176z" />
    <glyph glyph-name="Ydieresis" unicode="&#x178;" horiz-adv-x="388" 
d="M380 758h-60l-119 -305l-120 305h-73l156 -401v-357h63v357zM284 854v64h-58v-64h58zM149 854v64h-58v-64h58z" />
    <glyph glyph-name="exclamdown" unicode="&#xa1;" horiz-adv-x="193" 
d="M125 482v63h-58v-63h58zM137 -212l-15 535h-52l-14 -535h81z" />
    <glyph glyph-name="cent" unicode="&#xa2;" 
d="M349 542v3q0 24 -12 47q-13 24 -33 37q-20 14 -63 22v108h-48v-110q-49 -12 -77 -49q-29 -40 -42 -92t-13 -125q0 -38 3 -71t11 -62q16 -61 40 -94q26 -37 76 -50v-106h52v102q55 10 81 54q24 42 24 81h-55v-6q0 -20 -12 -42q-11 -23 -39 -32v444q50 -14 50 -55v-4h57z
M190 165q-28 17 -41 46q-14 28 -22 72q-4 21 -6 46t-2 54q0 30 2 55.5t6 48.5q8 45 21 70q15 25 42 40v-432z" />
    <glyph glyph-name="sterling" unicode="&#xa3;" 
d="M358 695v55q-24 21 -40 26q-12 4 -28 4q-35 0 -58 -23q-25 -23 -40 -64q-14 -38 -25 -126l-17 -130h-73v-49h67l-9 -76q-5 -44 -11.5 -79t-14.5 -62q-8 -26 -22.5 -48t-37.5 -39v-84h308v53h-250q27 36 41 68q12 30 24 84q5 28 9.5 54.5t8.5 53.5l10 75h113v50h-106
l11 95q11 85 18 118q9 37 23 52q14 17 35 17q26 0 64 -25z" />
    <glyph glyph-name="currency" unicode="&#xa4;" horiz-adv-x="415" 
d="M409 623v3q0 39 -20 78q-20 40 -53 58q-32 19 -79 19q-91 0 -150 -101q-20 -35 -33 -81.5t-19 -105.5h-41v-49h37q-1 -16 -1 -32v-33v-27t1 -26h-37v-49h40q12 -127 54 -199q57 -101 148 -101q46 0 79 18q33 19 53 58q20 42 20 78v5h-55v-5q0 -39 -21 -72
q-21 -32 -72 -32q-74 0 -110 99q-25 64 -32 151h243v49h-247q0 13 -0.5 26t-0.5 27q0 17 0.5 33t1.5 32h246v49h-242q9 80 30 138q37 99 111 99q29 0 50 -12q21 -14 31 -39q12 -24 12 -52v-4h56z" />
    <glyph glyph-name="currency" unicode="&#x20ac;" horiz-adv-x="415" 
d="M409 623v3q0 39 -20 78q-20 40 -53 58q-32 19 -79 19q-91 0 -150 -101q-20 -35 -33 -81.5t-19 -105.5h-41v-49h37q-1 -16 -1 -32v-33v-27t1 -26h-37v-49h40q12 -127 54 -199q57 -101 148 -101q46 0 79 18q33 19 53 58q20 42 20 78v5h-55v-5q0 -39 -21 -72
q-21 -32 -72 -32q-74 0 -110 99q-25 64 -32 151h243v49h-247q0 13 -0.5 26t-0.5 27q0 17 0.5 33t1.5 32h246v49h-242q9 80 30 138q37 99 111 99q29 0 50 -12q21 -14 31 -39q12 -24 12 -52v-4h56z" />
    <glyph glyph-name="yen" unicode="&#xa5;" 
d="M400 758h-54l-124 -328l-133 328h-65l165 -415h-121v-46h120v-116h-120v-44h120v-137h58v137h118v45h-117v115h118v52h-119z" />
    <glyph glyph-name="brokenbar" unicode="&#xa6;" horiz-adv-x="157" 
d="M104 452v328h-51v-328h51zM104 -9v329h-51v-329h51z" />
    <glyph glyph-name="section" unicode="&#xa7;" 
d="M364 268q0 54 -24 93q-13 19 -33.5 39t-49.5 42l-56 40q-23 17 -38 34.5t-24 33.5q-19 31 -19 72q0 51 25 79t64 28q36 0 59 -16q23 -18 23 -52v-5h63v4q0 48 -31 85q-32 35 -103 35q-76 0 -116 -51q-41 -50 -41 -129q0 -40 12 -73q14 -36 38 -63q-22 -24 -35 -59
q-15 -38 -15 -72q0 -20 4 -39t12 -38q8 -20 24 -37.5t39 -35.5l63 -49q32 -25 51.5 -45t30.5 -34q10 -17 14 -31q3 -9 4 -18t1 -18q0 -43 -23 -81q-24 -37 -73 -37q-32 0 -57 12q-26 12 -38 37q-11 27 -11 61v4h-61v-4q0 -60 33 -111t133 -51q53 0 87 26q31 25 49 66
q9 20 13 42.5t4 48.5q0 35 -9 65q-11 32 -46 68q57 63 57 134zM304 249q0 -47 -29 -85l-89 66q-23 18 -36.5 33.5t-18.5 26.5q-11 24 -11 52q0 10 1 20.5t3 22.5q3 22 23 53l81 -60q25 -19 40 -36.5t22 -31.5q14 -27 14 -61z" />
    <glyph glyph-name="dieresis" unicode="&#xa8;" horiz-adv-x="376" 
d="M285 643v63h-58v-63h58zM150 643v63h-58v-63h58z" />
    <glyph glyph-name="copyright" unicode="&#xa9;" horiz-adv-x="559" 
d="M535 378q0 106 -35 202q-17 47 -40.5 83.5t-52.5 63.5q-61 53 -127 53q-68 0 -127 -53q-61 -55 -94 -147q-34 -93 -34 -202q0 -107 35 -203q37 -96 94 -146q58 -52 126 -52q67 0 125 52q60 52 94 146q36 94 36 203zM497 378q0 -99 -30 -181q-29 -83 -80 -130
q-49 -44 -108 -46q-58 0 -107 46q-26 23 -45.5 55.5t-34.5 74.5q-30 82 -30 181q0 96 28 179q30 84 80 131q52 48 109 48q58 0 109 -48q52 -49 80 -131q29 -85 29 -179zM381 155v47q-44 -27 -77 -27q-50 0 -78 51q-30 51 -30 155q0 105 29 155q30 48 75 48q39 0 81 -27v45
q-43 23 -89 23q-75 0 -111 -73q-36 -74 -36 -168q0 -73 19 -131q18 -59 52 -90q33 -30 79 -30q50 0 86 22z" />
    <glyph glyph-name="ordfeminine" unicode="&#xaa;" horiz-adv-x="213" 
d="M197 451q-4 20 -5.5 43.5t-1.5 52.5v122q0 50 -9 70q-8 20 -27 30q-18 12 -42 12t-43 -10q-18 -8 -31 -26q-11 -17 -11 -35v-3h39v3q0 17 12 28q13 11 31 11q20 0 31 -16q10 -16 10 -48v-42l-16 -5q-65 -19 -88 -43q-25 -24 -25 -69q0 -41 18 -63q20 -23 44 -23
q17 0 34 11q16 10 33 33q0 -6 1 -14.5t3 -18.5h43zM149 577q0 -55 -19 -77q-20 -24 -36 -24q-10 0 -20 11q-11 11 -11 34q0 25 15 43q8 9 24 18.5t40 20.5l7 3v-29z" />
    <glyph glyph-name="guillemotleft" unicode="&#xab;" horiz-adv-x="339" 
d="M312 76l-88 195l88 198h-51l-96 -160v-73l93 -160h54zM177 76l-88 196l87 197h-50l-96 -160v-74l93 -159h54z" />
    <glyph glyph-name="logicalnot" unicode="&#xac;" 
d="M386 89v208h-347v-48h299v-160h48z" />
    <glyph glyph-name="registered" unicode="&#xae;" horiz-adv-x="559" 
d="M535 378q0 106 -35 202q-17 47 -40.5 83.5t-52.5 63.5q-61 53 -127 53q-68 0 -127 -53q-61 -55 -94 -147q-34 -93 -34 -202q0 -107 35 -203q37 -96 94 -146q58 -52 126 -52q67 0 125 52q60 52 94 146q36 94 36 203zM497 378q0 -99 -30 -181q-29 -83 -80 -130
q-49 -44 -108 -46q-58 0 -107 46q-26 23 -45.5 55.5t-34.5 74.5q-30 82 -30 181q0 96 28 179q30 84 80 131q52 48 109 48q58 0 109 -48q52 -49 80 -131q29 -85 29 -179zM398 145l-46 136q-18 52 -35 70q30 19 45 57q15 37 15 78q0 34 -11 65t-30 46q-19 17 -55 17h-99v-471
h50v205h37q8 0 25 -54l11 -34l38 -115h55zM327 488q0 -39 -13 -69q-14 -31 -47 -31h-34v185h37q26 0 36 -13q10 -11 16 -31q5 -20 5 -41z" />
    <glyph glyph-name="macron" unicode="&#xaf;" horiz-adv-x="376" 
d="M275 640v39h-174v-39h174z" />
    <glyph glyph-name="degree" unicode="&#xb0;" horiz-adv-x="217" 
d="M191 655q0 51 -24 89q-26 36 -59 36t-58 -36q-24 -38 -24 -89q0 -50 24 -87q25 -37 58 -37q34 0 59 37q24 37 24 87zM165 654q0 -36 -17 -65q-15 -28 -39 -28t-40 28q-16 30 -16 65q0 38 17 67q15 28 39 28q23 0 39 -28q17 -29 17 -67z" />
    <glyph glyph-name="plusminus" unicode="&#xb1;" 
d="M386 400v48h-150v235h-48v-235h-149v-48h149v-235h48v235h150zM386 0v48h-347v-48h347z" />
    <glyph glyph-name="twosuperior" unicode="&#xb2;" horiz-adv-x="255" 
d="M221 326v42h-150v3q0 69 64 145l14 17q7 8 15.5 17t18.5 22q18 24 26 49q7 22 7 48q0 46 -22 78q-21 33 -73 33q-44 0 -64 -23q-22 -22 -22 -45v-9h43v9q0 12 10 19q10 9 31 9q24 0 37 -19t13 -45q0 -20 -6 -39q-2 -10 -11 -25t-23 -35l-19 -25l-19 -22
q-17 -19 -29 -38.5t-20 -40.5q-15 -44 -15 -72v-53h194z" />
    <glyph glyph-name="threesuperior" unicode="&#xb3;" horiz-adv-x="256" 
d="M223 453q0 32 -11 62q-5 14 -17 28t-31 28q31 29 38 54q8 27 8 53q0 48 -24 75t-59 27q-24 0 -43 -9q-21 -11 -32 -28q-12 -18 -12 -36v-8h37v9q0 11 10 21q11 10 35 10q25 0 34 -20q11 -20 11 -44q-2 -22 -9 -41q-7 -20 -21 -34q-13 -13 -37 -13h-22v-43h18q43 0 61 -29
q20 -31 20 -68q0 -33 -12 -63t-45 -30q-27 0 -36 11q-8 11 -8 20v11h-39v-9q0 -32 22 -53t59 -21q52 0 79 43q26 44 26 97z" />
    <glyph glyph-name="acute" unicode="&#xb4;" horiz-adv-x="376" 
d="M253 788h-55l-75 -128h45z" />
    <glyph glyph-name="mu" unicode="&#xb5;" horiz-adv-x="376" 
d="M361 558h-55l-34 -276q-10 -88 -30 -136q-19 -48 -45 -74t-54 -26q-23 0 -39 24t-16 76q0 17 1.5 42t5.5 59l39 311h-57l-92 -740h59l25 195q21 -28 56 -28q26 0 55 23q30 24 64 81l-12 -89h60z" />
    <glyph glyph-name="paragraph" unicode="&#xb6;" 
d="M409 709v49h-188q-72 0 -111 -25q-38 -26 -57 -76q-20 -52 -20 -105q0 -82 45 -139q44 -58 115 -58v-537h50v891h67v-891h48v891h51z" />
    <glyph glyph-name="periodcentered" unicode="&#xb7;" 
d="M253 222v101h-82v-101h82z" />
    <glyph glyph-name="periodcentered" unicode="&#x2219;" 
d="M253 222v101h-82v-101h82z" />
    <glyph glyph-name="cedilla" unicode="&#xb8;" horiz-adv-x="376" 
d="M240 -144q0 24 -10 44q-10 21 -43 31l19 53h-33l-27 -76q55 -10 55 -51q0 -14 -9 -26q-7 -13 -19 -13q-19 0 -37 15v-31q21 -14 49 -14t42 21q13 20 13 47z" />
    <glyph glyph-name="onesuperior" unicode="&#xb9;" horiz-adv-x="256" 
d="M156 342v427h-39l-65 -48v-43l60 35v-371h44z" />
    <glyph glyph-name="ordmasculine" unicode="&#xba;" horiz-adv-x="236" 
d="M218 611q0 83 -30 127q-29 42 -70 42q-42 0 -70 -42q-30 -44 -30 -127q0 -85 30 -127t70 -42q41 0 70 42q30 42 30 127zM179 611q0 -57 -17 -96q-17 -36 -44 -36q-28 0 -44 36q-16 40 -16 96q0 59 16 97q16 37 44 37t44 -37q17 -37 17 -97z" />
    <glyph glyph-name="guillemotright" unicode="&#xbb;" horiz-adv-x="340" 
d="M309 231v82l-91 156h-54l87 -195l-88 -198h53zM173 231v82l-90 156h-54l87 -195l-88 -197h54z" />
    <glyph glyph-name="onequarter" unicode="&#xbc;" horiz-adv-x="576" 
d="M476 765h-55l-359 -784h63zM539 128v39h-41v259h-48l-136 -253v-45h141v-129h43v129h41zM141 313v441h-39l-65 -48v-43l60 35v-385h44zM453 170h-88l88 166v-166z" />
    <glyph glyph-name="onehalf" unicode="&#xbd;" horiz-adv-x="576" 
d="M549 0v42h-151v4q0 74 63 154l15 17q7 7 15 16.5t18 21.5q20 25 26 48q7 21 7 47q0 43 -22 74q-21 33 -73 33q-42 0 -64 -25q-21 -24 -21 -48v-9h43v10q0 10 10 19t31 9q24 0 36 -18q14 -19 14 -43q0 -18 -6 -37q-7 -20 -34 -56l-19 -24l-20 -23q-33 -36 -49 -82
q-15 -45 -15 -75v-55h196zM466 780h-54l-359 -784h62zM131 328v441h-39l-65 -48v-43l60 35v-385h44z" />
    <glyph glyph-name="threequarters" unicode="&#xbe;" horiz-adv-x="576" 
d="M210 453q0 35 -10 62q-10 28 -49 56q31 28 39 54q7 24 7 53q0 47 -23 75q-24 27 -59 27q-25 0 -44 -10q-19 -9 -32 -27q-12 -18 -12 -36v-8h37v9q0 10 11 21q10 10 34 10q25 0 34 -20q10 -19 10 -44q0 -11 -1.5 -21t-6.5 -20q-7 -20 -21 -34q-12 -13 -37 -13h-22v-43h18
q42 0 62 -29q19 -29 19 -68q0 -33 -12 -63t-44 -30q-27 0 -36 11q-9 10 -9 20v11h-39v-9q0 -34 23 -54q22 -21 58 -21q51 0 79 43q26 44 26 98zM491 765h-54l-362 -790h62zM553 128v39h-41v259h-49l-135 -253v-45h140v-129h44v129h41zM467 170h-88l88 166v-166z" />
    <glyph glyph-name="questiondown" unicode="&#xbf;" horiz-adv-x="362" 
d="M238 482v63h-58v-63h58zM321 -115v4h-56v-5q0 -34 -17 -53q-17 -17 -45 -17q-35 0 -58 28q-24 27 -24 69q0 25 10 49q9 25 33 66l24 41q18 31 33 81q16 49 16 130v46h-57v-62q0 -71 -14 -105q-13 -33 -35 -62l-22 -31q-35 -50 -41 -84q-7 -32 -7 -57q0 -42 16 -77
q19 -39 49 -59q32 -22 68 -22q34 0 65 17q30 16 46 46q16 28 16 57z" />
    <glyph glyph-name="Agrave" unicode="&#xc0;" horiz-adv-x="463" 
d="M453 0l-182 758h-63l-198 -758h59l56 216h208l52 -216h68zM317 273h-177l92 357zM276 854l-83 84h-92l105 -84h70z" />
    <glyph glyph-name="Aacute" unicode="&#xc1;" horiz-adv-x="463" 
d="M453 0l-182 758h-63l-198 -758h59l56 216h208l52 -216h68zM317 273h-177l92 357zM274 938h-89l-83 -84h67z" />
    <glyph glyph-name="Acircumflex" unicode="&#xc2;" horiz-adv-x="463" 
d="M453 0l-182 758h-63l-198 -758h59l56 216h208l52 -216h68zM317 273h-177l92 357zM275 853l-69 75h-40l-69 -74h45l44 30l44 -31h45z" />
    <glyph glyph-name="Atilde" unicode="&#xc3;" horiz-adv-x="463" 
d="M453 0l-182 758h-63l-198 -758h59l56 216h208l52 -216h68zM317 273h-177l92 357zM294 924h-36q-4 -19 -11 -26q-5 -5 -15 -5q-8 0 -26 9l-29 15q-22 11 -38 11t-27 -7t-22 -24q-5 -9 -8.5 -19t-4.5 -22h35q3 23 12 29q8 7 15 7q5 0 10.5 -2.5t13.5 -6.5l7 -4l20 -12
q27 -15 39 -15q23 0 40 16q19 16 25 56z" />
    <glyph glyph-name="Adieresis" unicode="&#xc4;" horiz-adv-x="463" 
d="M453 0l-182 758h-63l-198 -758h59l56 216h208l52 -216h68zM317 273h-177l92 357zM333 854v64h-59v-64h59zM198 854v64h-58v-64h58z" />
    <glyph glyph-name="Aring" unicode="&#xc5;" horiz-adv-x="463" 
d="M454 0l-183 756q12 15 18 33t6 40q0 37 -17 61q-17 26 -40 26t-40 -26q-17 -28 -17 -61q0 -23 7 -40q6 -20 19 -32l-198 -757h59l57 216h208l51 -216h70zM267 836q0 -18 -8 -34q-9 -14 -20 -14q-12 0 -21 14q-8 16 -8 34t8 34q9 15 21 15q11 0 20 -15q8 -14 8 -34z
M317 273h-177l92 357z" />
    <glyph glyph-name="AE" unicode="&#xc6;" horiz-adv-x="631" 
d="M600 0v56h-227v318h184v48h-184v280h210v56h-272l-311 -758h65l89 215h157v-215h289zM310 273h-133l133 322v-322z" />
    <glyph glyph-name="Ccedilla" unicode="&#xc7;" horiz-adv-x="415" 
d="M389 623v3q0 39 -19 78q-20 40 -54 58q-32 19 -78 19q-66 0 -112 -49t-71 -133q-24 -84 -24 -234q0 -122 18 -195t59 -127q40 -54 99 -65l-24 -69q58 -10 58 -52q0 -14 -9 -26q-9 -13 -20 -13q-20 0 -36 15v-31q21 -14 49 -14t43 21q13 20 13 47q0 23 -10 43
q-10 21 -43 31l16 48q27 2 47.5 8t34.5 16q28 19 45 57q17 39 17 72v4h-55v-5q0 -38 -21 -71q-21 -32 -72 -32q-74 0 -110 99q-36 97 -36 253q0 153 36 252t110 99q29 0 50 -12q19 -12 32 -38q11 -27 11 -53v-4h56z" />
    <glyph glyph-name="Egrave" unicode="&#xc8;" horiz-adv-x="366" 
d="M335 0v56h-226v313h183v53h-183v280h209v56h-272v-758h289zM235 854l-82 84h-93l105 -84h70z" />
    <glyph glyph-name="Eacute" unicode="&#xc9;" horiz-adv-x="366" 
d="M335 0v56h-226v313h183v53h-183v280h209v56h-272v-758h289zM214 938h-89l-83 -84h67z" />
    <glyph glyph-name="Ecircumflex" unicode="&#xca;" horiz-adv-x="366" 
d="M335 0v56h-226v313h183v53h-183v280h209v56h-272v-758h289zM234 853l-69 75h-40l-70 -74h46l43 30l44 -31h46z" />
    <glyph glyph-name="Edieresis" unicode="&#xcb;" horiz-adv-x="366" 
d="M335 0v56h-226v313h183v53h-183v280h209v56h-272v-758h289zM284 854v64h-58v-64h58zM149 854v64h-58v-64h58z" />
    <glyph glyph-name="Igrave" unicode="&#xcc;" horiz-adv-x="154" 
d="M109 0v758h-63v-758h63zM122 854l-82 84h-93l105 -84h70z" />
    <glyph glyph-name="Iacute" unicode="&#xcd;" horiz-adv-x="154" 
d="M109 0v758h-63v-758h63zM101 938h-90l-82 -84h67z" />
    <glyph glyph-name="Icircumflex" unicode="&#xce;" horiz-adv-x="154" 
d="M109 0v758h-63v-758h63zM121 853l-70 75h-40l-69 -74h45l44 30l44 -31h46z" />
    <glyph glyph-name="Idieresis" unicode="&#xcf;" horiz-adv-x="154" 
d="M109 0v758h-63v-758h63zM171 854v64h-58v-64h58zM36 854v64h-58v-64h58z" />
    <glyph glyph-name="Eth" unicode="&#xd0;" horiz-adv-x="445" 
d="M416 382q0 124 -25 208q-26 85 -70 126q-45 42 -143 42h-133v-347h-57v-49h57v-362h142q92 0 137 49q46 49 69 134q23 86 23 199zM353 373q0 -108 -19 -177q-18 -72 -52 -104q-33 -33 -100 -33h-74v303h87v50h-86v294h73q71 0 104 -37q33 -35 50 -113q17 -79 17 -183z
" />
    <glyph glyph-name="Ntilde" unicode="&#xd1;" horiz-adv-x="451" 
d="M405 0v758h-58v-538l1 -59l-20 60l-221 537h-62v-758h59v536l-1 61l18 -56l221 -541h63zM289 924h-37q-4 -19 -11 -26q-5 -5 -15 -5q-8 0 -26 9l-29 15q-22 11 -38 11t-27 -7q-12 -9 -22 -24q-5 -9 -8.5 -19t-4.5 -22h35q3 23 12 29q8 7 15 7q5 0 10.5 -2.5t13.5 -6.5
l7 -4l20 -12q27 -15 40 -15q22 0 39 16q18 15 26 56z" />
    <glyph glyph-name="Ograve" unicode="&#xd2;" horiz-adv-x="468" 
d="M438 379q0 193 -57 297q-56 104 -147 104t-147 -104q-57 -104 -57 -297q0 -194 57 -297q57 -105 147 -105t147 105q57 103 57 297zM375 379q0 -161 -37 -254q-38 -96 -104 -96t-103 96q-37 93 -37 254q0 159 37 254q37 96 103 96t104 -96q37 -95 37 -254zM278 854l-82 84
h-93l105 -84h70z" />
    <glyph glyph-name="Oacute" unicode="&#xd3;" horiz-adv-x="468" 
d="M438 379q0 193 -57 297q-56 104 -147 104t-147 -104q-57 -104 -57 -297q0 -194 57 -297q57 -105 147 -105t147 105q57 103 57 297zM375 379q0 -161 -37 -254q-38 -96 -104 -96t-103 96q-37 93 -37 254q0 159 37 254q37 96 103 96t104 -96q37 -95 37 -254zM257 938h-89
l-83 -84h67z" />
    <glyph glyph-name="Ocircumflex" unicode="&#xd4;" horiz-adv-x="468" 
d="M438 379q0 193 -57 297q-56 104 -147 104t-147 -104q-57 -104 -57 -297q0 -194 57 -297q57 -105 147 -105t147 105q57 103 57 297zM375 379q0 -161 -37 -254q-38 -96 -104 -96t-103 96q-37 93 -37 254q0 159 37 254q37 96 103 96t104 -96q37 -95 37 -254zM277 853l-69 75
h-40l-69 -74h45l44 30l44 -31h45z" />
    <glyph glyph-name="Otilde" unicode="&#xd5;" horiz-adv-x="468" 
d="M438 379q0 193 -57 297q-56 104 -147 104t-147 -104q-57 -104 -57 -297q0 -194 57 -297q57 -105 147 -105t147 105q57 103 57 297zM375 379q0 -161 -37 -254q-38 -96 -104 -96t-103 96q-37 93 -37 254q0 159 37 254q37 96 103 96t104 -96q37 -95 37 -254zM297 924h-37
q-2 -11 -5 -17t-5 -9q-5 -5 -16 -5q-7 0 -26 9l-29 15q-20 11 -38 11q-16 0 -26 -7q-13 -8 -23 -24q-10 -17 -13 -41h36q1 23 11 29q8 7 15 7q5 0 10.5 -2.5t13.5 -6.5l7 -4l20 -12q27 -15 40 -15q21 0 40 16q19 17 25 56z" />
    <glyph glyph-name="Odieresis" unicode="&#xd6;" horiz-adv-x="468" 
d="M438 379q0 193 -57 297q-56 104 -147 104t-147 -104q-57 -104 -57 -297q0 -194 57 -297q57 -105 147 -105t147 105q57 103 57 297zM375 379q0 -161 -37 -254q-38 -96 -104 -96t-103 96q-37 93 -37 254q0 159 37 254q37 96 103 96t104 -96q37 -95 37 -254zM327 854v64h-58
v-64h58zM192 854v64h-58v-64h58z" />
    <glyph glyph-name="multiply" unicode="&#xd7;" 
d="M378 486l-36 47l-136 -217l-134 209l-27 -41l139 -221l-138 -216l19 -35l142 218l136 -219l29 43l-133 208z" />
    <glyph glyph-name="Oslash" unicode="&#xd8;" horiz-adv-x="468" 
d="M439 378q0 42 -3 80t-8 73q-10 67 -41 135l50 114h-58l-29 -65q-53 65 -116 65q-93 0 -148 -106q-57 -105 -57 -286q0 -76 9 -149q9 -74 40 -142l-44 -105h61l21 48q49 -63 120 -63q61 0 106 47q46 49 71 132q26 87 26 222zM328 666l-211 -479q-9 33 -14.5 61.5
t-7.5 53.5q-2 26 -3 49t-1 45q0 149 39 241t104 92q17 0 40 -10q24 -9 54 -53zM373 372q0 -157 -37 -249q-38 -93 -105 -93q-52 0 -89 76l207 470q24 -87 24 -204z" />
    <glyph glyph-name="Ugrave" unicode="&#xd9;" 
d="M385 280v478h-57v-469q0 -69 -3.5 -113.5t-9.5 -65.5q-14 -45 -38 -63q-25 -19 -59 -19q-35 0 -63 19q-27 18 -41 58q-13 36 -13 148v505h-62v-501q0 -126 21 -178t64 -77q41 -25 94 -25q56 0 91 31q36 31 56 85q20 55 20 187zM257 854l-83 84h-92l105 -84h70z" />
    <glyph glyph-name="Uacute" unicode="&#xda;" 
d="M385 280v478h-57v-469q0 -69 -3.5 -113.5t-9.5 -65.5q-14 -45 -38 -63q-25 -19 -59 -19q-35 0 -63 19q-27 18 -41 58q-13 36 -13 148v505h-62v-501q0 -126 21 -178t64 -77q41 -25 94 -25q56 0 91 31q36 31 56 85q20 55 20 187zM219 938h-89l-83 -84h67z" />
    <glyph glyph-name="Ucircumflex" unicode="&#xdb;" 
d="M385 280v478h-57v-469q0 -69 -3.5 -113.5t-9.5 -65.5q-14 -45 -38 -63q-25 -19 -59 -19q-35 0 -63 19q-27 18 -41 58q-13 36 -13 148v505h-62v-501q0 -126 21 -178t64 -77q41 -25 94 -25q56 0 91 31q36 31 56 85q20 55 20 187zM256 853l-69 75h-41l-69 -74h46l43 30
l44 -31h46z" />
    <glyph glyph-name="Udieresis" unicode="&#xdc;" 
d="M385 280v478h-57v-469q0 -69 -3.5 -113.5t-9.5 -65.5q-14 -45 -38 -63q-25 -19 -59 -19q-35 0 -63 19q-27 18 -41 58q-13 36 -13 148v505h-62v-501q0 -126 21 -178t64 -77q41 -25 94 -25q56 0 91 31q36 31 56 85q20 55 20 187zM306 854v64h-58v-64h58zM171 854v64h-58
v-64h58z" />
    <glyph glyph-name="Yacute" unicode="&#xdd;" horiz-adv-x="388" 
d="M380 758h-60l-119 -305l-120 305h-73l156 -401v-357h63v357zM249 938h-90l-82 -84h67z" />
    <glyph glyph-name="Thorn" unicode="&#xde;" horiz-adv-x="371" 
d="M351 411q0 61 -16 105q-15 44 -47 69q-30 23 -108 23h-71v150h-63v-758h64v173h59q91 0 136 69q46 68 46 169zM288 411q0 -76 -27 -130q-26 -54 -109 -54h-42v331h72q63 0 84 -41q22 -40 22 -106z" />
    <glyph glyph-name="germandbls" unicode="&#xdf;" horiz-adv-x="376" 
d="M356 139q0 40 -13 77.5t-42 71.5l-24 28l-17 22l-13 16q-20 23 -29 42.5t-9 34.5q0 11 5.5 27.5t18.5 38.5l15 24q9 16 17 31.5t14 31.5q12 31 12 70q0 67 -35 100q-34 34 -83 34q-40 0 -68 -24q-27 -25 -43 -71q-15 -45 -15 -132v-561h59v589q0 92 19 120t47 28
q24 0 41 -20q17 -22 17 -47q0 -37 -29 -91l-17 -32l-3 -6t-6 -11q-28 -51 -28 -92q0 -26 9 -51q5 -12 16 -29.5t31 -40.5q3 -4 6.5 -8.5t6.5 -9.5l18 -25q43 -60 54 -89q11 -31 11 -64q0 -42 -16 -62q-15 -22 -35 -22q-5 0 -13 1.5t-20 3.5q-23 4 -53 23v-57q35 -23 80 -23
q56 0 85 44q29 43 29 110z" />
    <glyph glyph-name="agrave" unicode="&#xe0;" horiz-adv-x="352" 
d="M320 0q-5 26 -7.5 48.5t-2.5 42.5q-1 20 -1 38v37v217q0 88 -15 121q-13 31 -44 51q-31 19 -69 19t-69 -16t-51 -50q-19 -32 -19 -62v-7h60v8q0 31 20 56q19 25 55 25q31 0 52 -26t21 -89v-77l-31 -9q-102 -30 -143 -74q-42 -42 -42 -121q0 -68 29 -108q30 -39 71 -39
q24 0 50 15q25 14 65 72q0 -30 9 -72h62zM251 224q0 -59 -13 -99q-14 -42 -37 -67q-25 -25 -48 -25q-15 0 -28 12q-16 11 -22 32q-8 22 -8 45q0 47 25 83q13 17 41 34.5t72 38.5l18 8v-62zM252 666l-70 122h-56l81 -122h45z" />
    <glyph glyph-name="aacute" unicode="&#xe1;" horiz-adv-x="352" 
d="M320 0q-5 26 -7.5 48.5t-2.5 42.5q-1 20 -1 38v37v217q0 88 -15 121q-13 31 -44 51q-31 19 -69 19t-69 -16t-51 -50q-19 -32 -19 -62v-7h60v8q0 31 20 56q19 25 55 25q31 0 52 -26t21 -89v-77l-31 -9q-102 -30 -143 -74q-42 -42 -42 -121q0 -68 29 -108q30 -39 71 -39
q24 0 50 15q25 14 65 72q0 -30 9 -72h62zM251 224q0 -59 -13 -99q-14 -42 -37 -67q-25 -25 -48 -25q-15 0 -28 12q-16 11 -22 32q-8 22 -8 45q0 47 25 83q13 17 41 34.5t72 38.5l18 8v-62zM264 788h-55l-75 -128h45z" />
    <glyph glyph-name="acircumflex" unicode="&#xe2;" horiz-adv-x="352" 
d="M320 0q-5 26 -7.5 48.5t-2.5 42.5q-1 20 -1 38v37v217q0 88 -15 121q-13 31 -44 51q-31 19 -69 19t-69 -16t-51 -50q-19 -32 -19 -62v-7h60v8q0 31 20 56q19 25 55 25q31 0 52 -26t21 -89v-77l-31 -9q-102 -30 -143 -74q-42 -42 -42 -121q0 -68 29 -108q30 -39 71 -39
q24 0 50 15q25 14 65 72q0 -30 9 -72h62zM251 224q0 -59 -13 -99q-14 -42 -37 -67q-25 -25 -48 -25q-15 0 -28 12q-16 11 -22 32q-8 22 -8 45q0 47 25 83q13 17 41 34.5t72 38.5l18 8v-62zM261 659l-59 129h-38l-60 -130h52l27 50l25 -49h53z" />
    <glyph glyph-name="atilde" unicode="&#xe3;" horiz-adv-x="352" 
d="M320 0q-5 26 -7.5 48.5t-2.5 42.5q-1 20 -1 38v37v217q0 88 -15 121q-13 31 -44 51q-31 19 -69 19t-69 -16t-51 -50q-19 -32 -19 -62v-7h60v8q0 31 20 56q19 25 55 25q31 0 52 -26t21 -89v-77l-31 -9q-102 -30 -143 -74q-42 -42 -42 -121q0 -68 29 -108q30 -39 71 -39
q24 0 50 15q25 14 65 72q0 -30 9 -72h62zM251 224q0 -59 -13 -99q-14 -42 -37 -67q-25 -25 -48 -25q-15 0 -28 12q-16 11 -22 32q-8 22 -8 45q0 47 25 83q13 17 41 34.5t72 38.5l18 8v-62zM278 754h-38q0 -56 -18 -56q-10 0 -36 20l-13 14q-22 22 -39 22q-25 0 -40 -27
q-16 -28 -16 -85h38q0 48 22 48q9 0 26 -13l14 -14q20 -23 42 -23q17 0 30 13q14 14 20 35q7 21 8 66z" />
    <glyph glyph-name="adieresis" unicode="&#xe4;" horiz-adv-x="352" 
d="M320 0q-5 26 -7.5 48.5t-2.5 42.5q-1 20 -1 38v37v217q0 88 -15 121q-13 31 -44 51q-31 19 -69 19t-69 -16t-51 -50q-19 -32 -19 -62v-7h60v8q0 31 20 56q19 25 55 25q31 0 52 -26t21 -89v-77l-31 -9q-102 -30 -143 -74q-42 -42 -42 -121q0 -68 29 -108q30 -39 71 -39
q24 0 50 15q25 14 65 72q0 -30 9 -72h62zM251 224q0 -59 -13 -99q-14 -42 -37 -67q-25 -25 -48 -25q-15 0 -28 12q-16 11 -22 32q-8 22 -8 45q0 47 25 83q13 17 41 34.5t72 38.5l18 8v-62zM275 643v63h-58v-63h58zM140 643v63h-58v-63h58z" />
    <glyph glyph-name="aring" unicode="&#xe5;" horiz-adv-x="352" 
d="M320 0q-5 26 -7.5 48.5t-2.5 42.5q-1 20 -1 38v37v217q0 88 -15 121q-13 31 -44 51q-31 19 -69 19t-69 -16t-51 -50q-19 -32 -19 -62v-7h60v8q0 31 20 56q19 25 55 25q31 0 52 -26t21 -89v-77l-31 -9q-102 -30 -143 -74q-42 -42 -42 -121q0 -68 29 -108q30 -39 71 -39
q24 0 50 15q25 14 65 72q0 -30 9 -72h62zM251 224q0 -59 -13 -99q-14 -42 -37 -67q-25 -25 -48 -25q-15 0 -28 12q-16 11 -22 32q-8 22 -8 45q0 47 25 83q13 17 41 34.5t72 38.5l18 8v-62zM234 724q0 35 -16 61q-17 26 -40 26t-40 -26q-16 -26 -16 -61t16 -60q17 -26 40 -26
t40 26q16 25 16 60zM207 723q0 -22 -8 -38q-9 -17 -21 -17t-21 17q-8 16 -8 38q0 21 8 39q9 16 21 16t21 -16q8 -18 8 -39z" />
    <glyph glyph-name="ae" unicode="&#xe6;" horiz-adv-x="590" 
d="M556 281v29q0 138 -40 201q-41 63 -100 63q-24 0 -48 -11q-23 -11 -38 -30q-8 -9 -15.5 -23.5t-15.5 -34.5q-21 61 -54 80t-65 19q-37 0 -68 -18q-33 -18 -51 -49q-19 -31 -19 -62v-6h60v8q0 31 20 56q19 25 58 25q33 0 56 -33q22 -32 22 -129v-28l-37 -12
q-87 -28 -123 -56q-36 -27 -49 -60q-14 -31 -14 -78q0 -66 28 -106q29 -41 77 -41q40 0 77 29q36 30 67 101q22 -80 60 -105q35 -25 74 -25q37 0 66 16q32 17 50 48q19 31 19 61v5h-56v-6q0 -21 -17 -47q-17 -27 -57 -27q-53 0 -83 70q-30 69 -30 154v22h246zM502 329h-191
q3 42 11.5 76t22.5 61q29 53 64 53q24 0 46 -22q21 -20 35 -68q12 -47 12 -86v-14zM259 258q0 -64 -13 -116q-12 -52 -38 -81q-25 -28 -49 -28q-23 0 -41 21q-19 22 -19 67q0 32 10 56q11 27 33 46q23 20 95 53l22 11v-29z" />
    <glyph glyph-name="ccedilla" unicode="&#xe7;" horiz-adv-x="347" 
d="M319 443v4q0 32 -17 62q-18 31 -45 48q-29 17 -69 17q-74 0 -115 -77q-42 -77 -42 -226q0 -132 34 -200t101 -85l-27 -77q58 -10 58 -52q0 -14 -9 -26q-9 -13 -20 -13q-19 0 -37 15v-31q21 -14 49 -14q30 0 43 22q13 20 13 48q0 24 -10 44q-11 22 -44 31l19 53
q35 3 62 20q25 17 40 46q15 30 15 59v5h-54v-6q0 -30 -18 -52t-54 -22q-43 0 -73 57t-30 186t30 186q30 58 73 58q36 0 54 -23t18 -52v-5h55z" />
    <glyph glyph-name="egrave" unicode="&#xe8;" horiz-adv-x="366" 
d="M336 283v29q0 98 -18 154q-18 55 -51 81q-32 27 -71 27q-71 0 -117 -85q-45 -84 -45 -214q0 -126 42 -208t120 -82q40 0 69 16q28 15 48 48q18 31 18 62v19h-54v-20q0 -28 -18 -52q-17 -23 -56 -23q-54 -2 -84 69q-31 69 -31 179h248zM283 328h-193q9 90 37 140
q29 50 61 50q27 0 49 -22q20 -20 34 -65q12 -44 12 -91v-12zM261 666l-71 122h-55l80 -122h46z" />
    <glyph glyph-name="eacute" unicode="&#xe9;" horiz-adv-x="366" 
d="M336 283v29q0 98 -18 154q-18 55 -51 81q-32 27 -71 27q-71 0 -117 -85q-45 -84 -45 -214q0 -126 42 -208t120 -82q40 0 69 16q28 15 48 48q18 31 18 62v19h-54v-20q0 -28 -18 -52q-17 -23 -56 -23q-54 -2 -84 69q-31 69 -31 179h248zM283 328h-193q9 90 37 140
q29 50 61 50q27 0 49 -22q20 -20 34 -65q12 -44 12 -91v-12zM272 788h-55l-74 -128h45z" />
    <glyph glyph-name="ecircumflex" unicode="&#xea;" horiz-adv-x="366" 
d="M336 283v29q0 98 -18 154q-18 55 -51 81q-32 27 -71 27q-71 0 -117 -85q-45 -84 -45 -214q0 -126 42 -208t120 -82q40 0 69 16q28 15 48 48q18 31 18 62v19h-54v-20q0 -28 -18 -52q-17 -23 -56 -23q-54 -2 -84 69q-31 69 -31 179h248zM283 328h-193q9 90 37 140
q29 50 61 50q27 0 49 -22q20 -20 34 -65q12 -44 12 -91v-12zM264 659l-59 129h-38l-60 -130h52l27 50l25 -49h53z" />
    <glyph glyph-name="edieresis" unicode="&#xeb;" horiz-adv-x="366" 
d="M336 283v29q0 98 -18 154q-18 55 -51 81q-32 27 -71 27q-71 0 -117 -85q-45 -84 -45 -214q0 -126 42 -208t120 -82q40 0 69 16q28 15 48 48q18 31 18 62v19h-54v-20q0 -28 -18 -52q-17 -23 -56 -23q-54 -2 -84 69q-31 69 -31 179h248zM283 328h-193q9 90 37 140
q29 50 61 50q27 0 49 -22q20 -20 34 -65q12 -44 12 -91v-12zM283 643v63h-58v-63h58zM148 643v63h-58v-63h58z" />
    <glyph glyph-name="igrave" unicode="&#xec;" horiz-adv-x="149" 
d="M104 0v558h-58v-558h58zM173 666l-70 122h-56l81 -122h45z" />
    <glyph glyph-name="iacute" unicode="&#xed;" horiz-adv-x="149" 
d="M104 0v558h-58v-558h58zM177 788h-55l-75 -128h45z" />
    <glyph glyph-name="icircumflex" unicode="&#xee;" horiz-adv-x="149" 
d="M104 0v558h-58v-558h58zM204 659l-59 129h-38l-60 -130h52l27 50l25 -49h53z" />
    <glyph glyph-name="idieresis" unicode="&#xef;" horiz-adv-x="149" 
d="M104 0v558h-58v-558h58zM240 643v63h-58v-63h58zM105 643v63h-58v-63h58z" />
    <glyph glyph-name="eth" unicode="&#xf0;" horiz-adv-x="378" 
d="M350 302q0 39 -3 78t-11 79q-13 80 -39 142q-27 63 -75 123l56 81l-21 37l-63 -90q-31 24 -62 30q-30 6 -68 6h-11v-54h9q52 0 101 -25l-73 -102l24 -42l71 101q38 -49 56 -92q10 -22 17.5 -45.5t13.5 -49.5q-33 30 -52 36q-20 6 -37 6q-42 0 -79 -33q-37 -32 -58 -92
t-21 -140q0 -120 45 -195q43 -76 117 -76q77 0 121 86q42 85 42 231zM293 251q0 -93 -29 -154q-29 -60 -75 -60q-47 0 -75 60q-29 61 -29 154q0 91 29 154q28 60 75 60q46 0 75 -60q29 -63 29 -154z" />
    <glyph glyph-name="ntilde" unicode="&#xf1;" horiz-adv-x="372" 
d="M330 0v355q0 47 -3.5 80t-10.5 54q-15 43 -40 63q-26 22 -59 22q-23 0 -41 -12q-19 -10 -37 -33q-17 -21 -35 -67v96h-58v-558h58v289q0 82 14 129q13 45 36 71q24 26 49 26q19 0 38 -19q17 -19 25 -52q6 -33 6 -112v-332h58zM288 754h-38q0 -56 -18 -56q-10 0 -36 20
l-13 14q-22 22 -39 22q-25 0 -40 -27q-16 -28 -16 -85h38q0 48 22 48q9 0 26 -13l14 -14q20 -23 42 -23q17 0 30 13q14 14 20 35q7 21 8 66z" />
    <glyph glyph-name="ograve" unicode="&#xf2;" horiz-adv-x="386" 
d="M356 279q0 146 -48 221q-48 74 -115 74q-68 0 -116 -74q-48 -75 -48 -221q0 -147 48 -220q48 -74 116 -74q67 0 115 74q48 73 48 220zM298 279q0 -112 -29 -176q-28 -67 -76 -67t-76 67q-29 67 -29 176t29 176q28 67 76 67t76 -67q29 -64 29 -176zM267 666l-70 122h-56
l81 -122h45z" />
    <glyph glyph-name="oacute" unicode="&#xf3;" horiz-adv-x="386" 
d="M356 279q0 146 -48 221q-48 74 -115 74q-68 0 -116 -74q-48 -75 -48 -221q0 -147 48 -220q48 -74 116 -74q67 0 115 74q48 73 48 220zM298 279q0 -112 -29 -176q-28 -67 -76 -67t-76 67q-29 67 -29 176t29 176q28 67 76 67t76 -67q29 -64 29 -176zM279 788h-55l-75 -128
h45z" />
    <glyph glyph-name="ocircumflex" unicode="&#xf4;" horiz-adv-x="386" 
d="M356 279q0 146 -48 221q-48 74 -115 74q-68 0 -116 -74q-48 -75 -48 -221q0 -147 48 -220q48 -74 116 -74q67 0 115 74q48 73 48 220zM298 279q0 -112 -29 -176q-28 -67 -76 -67t-76 67q-29 67 -29 176t29 176q28 67 76 67t76 -67q29 -64 29 -176zM271 659l-59 129h-38
l-60 -130h52l27 50l25 -49h53z" />
    <glyph glyph-name="otilde" unicode="&#xf5;" horiz-adv-x="386" 
d="M356 279q0 146 -48 221q-48 74 -115 74q-68 0 -116 -74q-48 -75 -48 -221q0 -147 48 -220q48 -74 116 -74q67 0 115 74q48 73 48 220zM298 279q0 -112 -29 -176q-28 -67 -76 -67t-76 67q-29 67 -29 176t29 176q28 67 76 67t76 -67q29 -64 29 -176zM292 754h-38
q0 -56 -18 -56q-10 0 -36 20l-13 14q-22 22 -39 22q-25 0 -40 -27q-16 -28 -16 -85h38q0 48 22 48q9 0 26 -13l14 -14q20 -23 42 -23q17 0 30 13q14 14 20 35q7 21 8 66z" />
    <glyph glyph-name="odieresis" unicode="&#xf6;" horiz-adv-x="386" 
d="M356 279q0 146 -48 221q-48 74 -115 74q-68 0 -116 -74q-48 -75 -48 -221q0 -147 48 -220q48 -74 116 -74q67 0 115 74q48 73 48 220zM298 279q0 -112 -29 -176q-28 -67 -76 -67t-76 67q-29 67 -29 176t29 176q28 67 76 67t76 -67q29 -64 29 -176zM289 643v63h-58v-63h58
zM154 643v63h-58v-63h58z" />
    <glyph glyph-name="divide" unicode="&#xf7;" 
d="M243 400v63h-58v-63h58zM386 249v48h-347v-48h347zM243 82v60h-58v-60h58z" />
    <glyph glyph-name="oslash" unicode="&#xf8;" horiz-adv-x="386" 
d="M357 277q0 29 -2 55.5t-6 52.5q-9 50 -33 100l33 72h-54l-13 -29q-42 46 -91 46q-66 0 -114 -75q-48 -74 -48 -218q0 -29 2 -55t5 -52q7 -50 33 -104l-40 -85h59l19 39q40 -40 90 -40q63 0 111 72q49 71 49 221zM258 479l-152 -326q-16 58 -16 139q0 99 29 165
q30 64 78 64q34 0 61 -42zM296 265q0 -100 -29 -164q-30 -64 -79 -64q-34 0 -61 36l153 328q16 -58 16 -136z" />
    <glyph glyph-name="ugrave" unicode="&#xf9;" horiz-adv-x="371" 
d="M325 0v558h-57v-290q0 -81 -14 -129q-14 -47 -37 -71q-23 -26 -48 -26q-31 0 -50 27q-20 26 -20 156v333h-58v-353q0 -134 33 -177t81 -43q23 0 40 10q18 11 35 32q18 21 36 65v-92h59zM250 666l-70 122h-56l81 -122h45z" />
    <glyph glyph-name="uacute" unicode="&#xfa;" horiz-adv-x="371" 
d="M325 0v558h-57v-290q0 -81 -14 -129q-14 -47 -37 -71q-23 -26 -48 -26q-31 0 -50 27q-20 26 -20 156v333h-58v-353q0 -134 33 -177t81 -43q23 0 40 10q18 11 35 32q18 21 36 65v-92h59zM270 788h-55l-75 -128h45z" />
    <glyph glyph-name="ucircumflex" unicode="&#xfb;" horiz-adv-x="371" 
d="M325 0v558h-57v-290q0 -81 -14 -129q-14 -47 -37 -71q-23 -26 -48 -26q-31 0 -50 27q-20 26 -20 156v333h-58v-353q0 -134 33 -177t81 -43q23 0 40 10q18 11 35 32q18 21 36 65v-92h59zM262 659l-59 129h-38l-60 -130h52l27 50l25 -49h53z" />
    <glyph glyph-name="udieresis" unicode="&#xfc;" horiz-adv-x="371" 
d="M325 0v558h-57v-290q0 -81 -14 -129q-14 -47 -37 -71q-23 -26 -48 -26q-31 0 -50 27q-20 26 -20 156v333h-58v-353q0 -134 33 -177t81 -43q23 0 40 10q18 11 35 32q18 21 36 65v-92h59zM281 643v63h-58v-63h58zM146 643v63h-58v-63h58z" />
    <glyph glyph-name="yacute" unicode="&#xfd;" horiz-adv-x="364" 
d="M355 558h-56l-109 -415l-116 415h-63l151 -539l-6 -24q-10 -42 -18.5 -68.5t-14.5 -38.5q-12 -25 -31 -36q-18 -12 -42 -12h-33v-52h43q35 0 59 16q23 15 42 52q20 38 50 150zM293 788h-55l-75 -128h45z" />
    <glyph glyph-name="thorn" unicode="&#xfe;" horiz-adv-x="384" 
d="M354 274q0 83 -18 151q-18 67 -51 102q-34 34 -73 34q-20 0 -42 -11q-21 -11 -36 -31q-18 -21 -34 -68v307h-58v-970h59v305q18 -50 33 -69q15 -20 35 -29q19 -10 41 -10q68 0 107 82q37 81 37 207zM296 269q0 -116 -29 -174q-27 -58 -71 -58q-46 0 -72 65
q-25 65 -25 169q0 34 3 64.5t8 59.5q12 58 36 86q23 29 52 29q38 0 68 -52q30 -54 30 -189z" />
    <glyph glyph-name="ydieresis" unicode="&#xff;" horiz-adv-x="364" 
d="M355 558h-56l-109 -415l-116 415h-63l151 -539l-6 -24q-10 -42 -18.5 -68.5t-14.5 -38.5q-12 -25 -31 -36q-18 -12 -42 -12h-33v-52h43q35 0 59 16q23 15 42 52q20 38 50 150zM285 643v63h-58v-63h58zM150 643v63h-58v-63h58z" />
    <glyph glyph-name="minus" unicode="&#xe000;" 
d="M386 249v48h-347v-48h347z" />
    <glyph glyph-name="notequal" unicode="&#xe001;" 
d="M386 162v46h-177l63 127h113v49h-90l43 86h-59l-45 -93h-195v-40h172l-65 -129h-107v-45h86l-43 -87h60l43 86h201z" />
    <glyph glyph-name="infinity" unicode="&#xe002;" 
d="M403 275q0 67 -25 111q-25 46 -64 46q-26 0 -50 -23q-25 -22 -52 -84l-7 12l-22 34q-38 60 -74 60q-26 0 -45 -21q-20 -20 -32 -60q-6 -20 -8.5 -41t-2.5 -42q0 -56 21 -105q23 -50 67 -50q35 0 61 32q24 30 43 75l9 -14l18 -31q37 -62 76 -62q38 0 63 49q24 49 24 114z
M361 280q0 -20 -3.5 -38.5t-9.5 -35.5q-14 -33 -30 -33q-20 0 -44 39q-12 20 -20 34.5t-12 24.5l-4 11q39 103 75 103q20 0 34 -30q14 -31 14 -75zM185 261q-41 -103 -76 -103q-19 0 -34 29q-13 27 -13 77q0 46 12 76q13 30 32 30q21 0 45 -43q12 -21 19 -34.5t10 -19.5z
" />
    <glyph glyph-name="lessequal" unicode="&#xe003;" 
d="M386 625v55l-326 -258l324 -254v57l-254 196zM386 0v48h-347v-48h347z" />
    <glyph glyph-name="greaterequal" unicode="&#xe004;" 
d="M365 422l-326 257v-53l257 -204l-256 -200v-53zM386 0v48h-347v-48h347z" />
    <glyph glyph-name="partialdiff" unicode="&#xe005;" horiz-adv-x="415" 
d="M378 374q0 116 -30 215q-32 99 -87 149q-58 50 -136 50h-7v-52h9q71 0 116 -55q43 -56 57 -162q-34 23 -64 23q-52 0 -97 -47q-45 -45 -74 -129q-28 -81 -28 -168q0 -59 16 -107q18 -52 50 -79q33 -27 74 -27q53 0 100 48q46 49 73 140q28 91 28 201zM319 351
q0 -80 -21 -158q-19 -77 -52 -116q-32 -38 -66 -38q-37 0 -61 45q-24 46 -24 120q0 65 20 136q18 67 52 108q31 40 67 40q35 0 60 -34t25 -103z" />
    <glyph glyph-name="summation" unicode="&#xe006;" horiz-adv-x="386" 
d="M367 -182v59h-295l181 460l-155 372h258v49h-322v-76l150 -359l-165 -421v-84h348z" />
    <glyph glyph-name="product" unicode="&#xe007;" horiz-adv-x="512" 
d="M487 709v49h-463v-49h58v-891h63v891h222v-891h62v891h58z" />
    <glyph glyph-name="pi" unicode="&#xe008;" horiz-adv-x="439" 
d="M416 497v48h-331q-7 0 -22 -3q-16 -3 -25 -7q-5 -2 -11 -5t-13 -8v-65q36 33 68 33h8v-490h58v493h152v-302q0 -110 22 -191h60q-24 82 -24 195v302h58z" />
    <glyph glyph-name="integral" unicode="&#xe009;" horiz-adv-x="333" 
d="M307 711q0 29 -17 49t-42 20q-44 0 -78 -78q-33 -78 -33 -342v-235q0 -159 -12 -210q-11 -52 -34 -52l-3.5 3.5t-11.5 10.5q3 4 4.5 7t3.5 6q3 6 3 13q0 14 -9 23q-10 10 -19 10q-14 0 -23 -15q-10 -13 -10 -34q0 -28 16 -49q15 -20 42 -20q46 0 79 81q33 79 33 298v247
q0 84 1.5 135.5t5.5 72.5q6 43 18 61q11 17 26 17q4 0 10 -6q-7 -9 -9 -14q-3 -6 -3 -13q0 -18 9 -28q10 -9 20 -9t21 12q12 12 12 39z" />
    <glyph glyph-name="Omega" unicode="&#xe00a;" horiz-adv-x="511" 
d="M478 0v52h-112q58 82 78 165q19 79 19 161q0 56 -6 107.5t-20 101.5q-28 100 -73 145q-47 48 -108 48q-63 0 -109 -47q-45 -46 -72 -146q-27 -99 -27 -210q0 -82 19 -162q10 -42 30 -82.5t49 -82.5h-113v-50h166v75q-40 50 -64 139q-25 87 -25 182q0 90 20 175
q18 80 52 119q32 38 74 38q41 0 74 -37q32 -37 52 -120q19 -82 19 -176t-24 -182q-24 -87 -64 -140v-73h165z" />
    <glyph glyph-name="radical" unicode="&#xe00b;" horiz-adv-x="571" 
d="M552 803h-52l-196 -887l-156 451l-110 -102l14 -38l58 50l159 -459h65z" />
    <glyph glyph-name="approxequal" unicode="&#xe00c;" 
d="M384 425v7h-38v-8q0 -30 -11 -57q-12 -27 -35 -27q-22 0 -55 30l-37 32q-26 22 -38 29q-6 4 -11.5 6t-10.5 4q-11 3 -20 3q-40 0 -64 -39q-24 -41 -24 -94v-7h37v8q0 18 6 39q6 22 17 33q10 10 23 10q25 0 58 -30l31 -29q48 -45 81 -45q32 0 62 33q15 16 22 41.5t7 60.5z
M384 235v7h-38v-8q0 -30 -11 -57q-12 -26 -34 -26q-23 0 -56 29l-37 32q-13 11 -22.5 17.5t-15.5 10.5q-6 5 -11.5 7t-10.5 4q-9 4 -20 4q-40 0 -64 -40q-24 -39 -24 -93v-8h37v9q0 16 6 39t17 32q11 11 23 11q23 0 58 -31l31 -28q48 -45 81 -45t62 32t29 102z" />
    <glyph glyph-name="Delta" unicode="&#xe00d;" horiz-adv-x="482" 
d="M462 0v93l-192 665h-64l-187 -667v-91h443zM397 66h-331l165 586z" />
    <glyph glyph-name="nonbreakingspace" unicode="&#xe00e;" horiz-adv-x="425" 
 />
    <glyph glyph-name="lozenge" unicode="&#xe00f;" 
d="M384 380l-172 373l-172 -375l172 -374zM325 379l-113 -243l-112 242l112 244z" />
    <glyph glyph-name="apple" unicode="&#xe010;" horiz-adv-x="753" 
d="M625 765v41h-42v-53h21v-17t-2 -15q-2 -15 -6 -27q-5 -14 -13 -22v-24q16 11 24 26q10 18 14 35q2 10 3 24t1 32zM651 259l-76 151l75 152h-38l-74 -123v-57l71 -123h42zM519 201v607h-44v-607h44zM461 201l-76 430h-46l-49 -277l-10 -79l-9 76l-55 280h-46l-76 -430h42
l47 268l9 82l13 -87l52 -263h45l48 266l9 86l9 -83l47 -269h46zM657 1v184h-563v-184h563z" />
    <glyph glyph-name="Euro" unicode="&#xe011;" horiz-adv-x="473" 
d="M396 392h-353l-9 -33h353zM436 544q-61 91 -146 91q-86 0 -145 -92q-59 -90 -59 -226q0 -134 59 -226q60 -91 147 -91q80 0 134 77v68q-56 -108 -134 -108q-72 0 -123 82q-50 82 -50 199q0 116 50 199q50 82 121 82q77 0 134 -99zM367 284h-324l-9 -32h324z" />
    <glyph glyph-name="franc" unicode="&#xe012;" 
d="M375 702v56h-272v-567h-77v-48h77v-143h58v143h106v48h-106v160h188v48h-188v303h214z" />
    <glyph glyph-name="Gbreve" unicode="&#xe013;" horiz-adv-x="429" 
d="M390 34v326h-164v-47h105v-252q-53 -31 -94 -31q-68 0 -106 95q-20 47 -29 111t-9 145q0 164 37 256q36 93 107 93q28 0 48 -13q21 -12 33 -35q13 -22 13 -48v-5h57v4q0 36 -21 74q-20 37 -56 55q-35 18 -78 18q-64 0 -108 -47q-45 -45 -71 -130q-12 -42 -18.5 -100
t-6.5 -133q0 -133 27 -218q14 -42 31 -74.5t40 -55.5q45 -45 117 -45q69 0 146 57zM281 925h-52q-10 -20 -20 -25q-9 -4 -22 -4q-12 0 -21 3q-10 5 -20 24h-52q15 -35 39 -55q27 -19 55 -19q29 0 54 20q24 19 39 56z" />
    <glyph glyph-name="gbreve" unicode="&#xe014;" horiz-adv-x="388" 
d="M342 102v456h-58v-86q-26 62 -52 81q-26 21 -58 21q-43 0 -77 -34q-32 -35 -50 -103q-18 -69 -18 -153q0 -126 40 -206q40 -78 102 -78q38 0 67 29q28 28 46 86v-72q0 -105 -14 -147q-14 -41 -35 -59q-22 -19 -53 -19q-39 0 -63 21q-25 21 -25 55v7h-53v-6q0 -33 17 -60
q16 -29 51 -46q34 -17 76 -17q44 0 79 27q33 26 56 80q11 27 16.5 82.5t5.5 140.5zM286 298q0 -55 -7 -99t-21 -79q-27 -70 -72 -70q-27 0 -51 28q-25 28 -35 80q-12 54 -12 125q0 57 7 100.5t21 75.5q28 63 72 63q38 0 69 -63q29 -63 29 -161zM283 788h-38q-3 -39 -18 -71
t-34 -32q-20 0 -35 31t-18 72h-35q3 -49 17 -82q14 -32 32 -48q19 -18 40 -18t39 18q18 16 33 48q14 33 17 82z" />
    <glyph glyph-name="Idotaccent" unicode="&#xe015;" horiz-adv-x="154" 
d="M109 0v758h-63v-758h63zM220 854v72h-63v-72h63z" />
    <glyph glyph-name="Scedilla" unicode="&#xe016;" horiz-adv-x="386" 
d="M360 192q0 59 -24 112q-11 26 -35 50t-59 50l-30 22q-23 17 -38 30.5t-24 23.5q-17 20 -28 51q-10 30 -10 66q0 53 22 93q21 40 67 40q25 0 42 -8q19 -8 28 -25q10 -17 10 -34v-7h63v7q0 46 -31 81q-30 36 -105 36q-82 0 -121 -58q-38 -59 -38 -142q0 -48 12 -87
q12 -37 37 -70q13 -16 32.5 -31t44.5 -33l25 -18q24 -18 42.5 -35.5t29.5 -34.5q24 -35 24 -91q0 -68 -27 -110q-29 -42 -69 -42q-42 0 -73 24q-31 26 -31 83v9h-60v-9q0 -65 30 -107q32 -43 109 -50l-24 -69q58 -10 58 -52q0 -14 -9 -26q-9 -13 -19 -13q-19 0 -37 15v-31
q21 -14 48 -14q29 0 43 21q14 22 14 47q0 22 -11 44q-12 21 -43 30l16 48q82 7 116 75q33 67 33 139z" />
    <glyph glyph-name="scedilla" unicode="&#xe017;" horiz-adv-x="323" 
d="M292 147q0 48 -17 82q-8 19 -24 34.5t-39 29.5l-19 13l-38 28l-22 17q-26 21 -34 39q-10 19 -10 46q0 38 17 56q19 19 53 19t52 -13q17 -14 17 -31v-7h55v5q0 21 -15 47q-15 25 -44 36q-15 6 -31.5 9.5t-34.5 3.5q-57 0 -92 -38q-35 -36 -35 -110q0 -53 22 -84
q20 -32 84 -70l31 -23q48 -36 58 -55q11 -22 11 -52q0 -34 -18 -64q-20 -29 -62 -29q-38 0 -57 16q-19 15 -19 46v8h-56v-7q0 -40 27 -73q25 -32 90 -41l-27 -75q58 -12 58 -53q0 -13 -8 -26q-9 -13 -20 -13q-19 0 -37 15v-31q22 -14 49 -14q29 0 43 21q13 20 13 47
q0 24 -10 44q-10 21 -44 31l20 55q63 13 88 58q25 43 25 103z" />
    <glyph glyph-name="Cacute" unicode="&#xe018;" horiz-adv-x="410" 
d="M390 623v3q0 36 -20 78q-20 40 -53 58q-34 19 -79 19q-93 0 -150 -101q-58 -101 -58 -301q0 -199 58 -301q59 -101 149 -101q44 0 79 18q34 20 53 58q19 39 19 78v5h-55v-5q0 -39 -21 -72q-21 -32 -72 -32q-73 0 -110 99q-36 97 -36 253q0 153 36 252t110 99q29 0 50 -12
q20 -13 32 -39q11 -25 11 -52v-4h57zM293 938h-89l-82 -84h66z" />
    <glyph glyph-name="cacute" unicode="&#xe019;" horiz-adv-x="347" 
d="M319 428v19q0 35 -17 64q-19 31 -46 46q-29 17 -68 17q-75 0 -117 -78q-41 -79 -41 -217q0 -137 41 -216q40 -78 117 -78q39 0 67 16q27 16 45 48q17 30 17 62v5h-53v-6q0 -28 -17 -53q-18 -22 -55 -22q-43 0 -73 57q-30 58 -30 187t30 186q28 58 73 58q37 0 54 -23
q18 -23 18 -52v-20h55zM293 788h-55l-75 -128h45z" />
    <glyph glyph-name="Ccaron" unicode="&#xe01a;" horiz-adv-x="410" 
d="M390 623v3q0 36 -20 78q-20 40 -53 58q-34 19 -79 19q-93 0 -150 -101q-58 -101 -58 -301q0 -199 58 -301q59 -101 149 -101q44 0 79 18q34 20 53 58q19 39 19 78v5h-55v-5q0 -39 -21 -72q-21 -32 -72 -32q-73 0 -110 99q-36 97 -36 253q0 153 36 252t110 99q29 0 50 -12
q20 -13 32 -39q11 -25 11 -52v-4h57zM282 927h-45l-45 -31l-45 31h-45l70 -76h39z" />
    <glyph glyph-name="ccaron" unicode="&#xe01b;" horiz-adv-x="347" 
d="M319 428v19q0 35 -17 64q-19 31 -46 46q-29 17 -68 17q-75 0 -117 -78q-41 -79 -41 -217q0 -137 41 -216q40 -78 117 -78q39 0 67 16q27 16 45 48q17 30 17 62v5h-53v-6q0 -28 -17 -53q-18 -22 -55 -22q-43 0 -73 57q-30 58 -30 187t30 186q28 58 73 58q37 0 54 -23
q18 -23 18 -52v-20h55zM278 788h-47l-44 -81l-43 81h-46l56 -126h67z" />
    <glyph glyph-name="dmacron" unicode="&#xe01c;" horiz-adv-x="383" 
d="M400 612v49h-58v127h-58v-127h-87v-49h87v-161q-18 50 -33 70q-17 20 -35 30q-22 10 -42 10q-68 0 -107 -83q-38 -84 -38 -207q0 -84 18 -151q18 -68 51 -101q31 -34 71 -34q20 0 41 9t36 27q15 17 36 68v-89h60v612h58zM285 274q0 -67 -12 -124q-11 -56 -35 -85
q-23 -29 -52 -29q-38 0 -68 52t-30 188q0 116 29 174q29 59 71 59q45 0 72 -66q25 -65 25 -169z" />
    <glyph glyph-name="Grave" unicode="&#xe01d;" horiz-adv-x="376" 
d="M276 854l-83 84h-92l105 -84h70z" />
    <glyph glyph-name="Acute" unicode="&#xe01e;" horiz-adv-x="375" 
d="M274 938h-89l-83 -84h67z" />
    <glyph glyph-name="Dieresis" unicode="&#xe01f;" horiz-adv-x="376" 
d="M284 854v64h-58v-64h58zM149 854v64h-58v-64h58z" />
    <glyph glyph-name="Circumflex" unicode="&#xe020;" horiz-adv-x="376" 
d="M277 853l-69 75h-40l-69 -74h45l44 30l44 -31h45z" />
    <glyph glyph-name="Tilde" unicode="&#xe021;" horiz-adv-x="376" 
d="M297 924h-37q-2 -11 -5 -17t-5 -9q-5 -5 -16 -5q-7 0 -26 9l-29 15q-20 11 -38 11q-16 0 -26 -7q-13 -8 -23 -24q-10 -17 -13 -41h36q1 23 11 29q8 7 15 7q5 0 10.5 -2.5t13.5 -6.5l7 -4l20 -12q27 -15 40 -15q21 0 40 16q19 17 25 56z" />
    <glyph glyph-name="Breve" unicode="&#xe022;" horiz-adv-x="376" 
d="M281 925h-52q-10 -20 -20 -25q-9 -4 -22 -4q-12 0 -21 3q-10 5 -20 24h-52q15 -35 39 -55q27 -19 55 -19q29 0 54 20q24 19 39 56z" />
    <glyph glyph-name="Dotaccent" unicode="&#xe023;" horiz-adv-x="376" 
d="M220 854v72h-63v-72h63z" />
    <glyph glyph-name="Caron" unicode="&#xe024;" horiz-adv-x="375" 
d="M278 927h-46l-45 -31l-44 31h-45l69 -76h40z" />
    <glyph glyph-name="Amacron" unicode="&#xe025;" horiz-adv-x="463" 
d="M453 0l-182 758h-63l-198 -758h59l56 216h208l52 -216h68zM317 273h-177l92 357zM318 819v39h-174v-39h174z" />
    <glyph glyph-name="amacron" unicode="&#xe026;" horiz-adv-x="352" 
d="M320 0q-5 26 -7.5 48.5t-2.5 42.5q-1 20 -1 38v37v217q0 88 -15 121q-13 31 -44 51q-31 19 -69 19t-69 -16t-51 -50q-19 -32 -19 -62v-7h60v8q0 31 20 56q19 25 55 25q31 0 52 -26t21 -89v-77l-31 -9q-102 -30 -143 -74q-42 -42 -42 -121q0 -68 29 -108q30 -39 71 -39
q24 0 50 15q25 14 65 72q0 -30 9 -72h62zM251 224q0 -59 -13 -99q-14 -42 -37 -67q-25 -25 -48 -25q-15 0 -28 12q-16 11 -22 32q-8 22 -8 45q0 47 25 83q13 17 41 34.5t72 38.5l18 8v-62zM274 623v39h-174v-39h174z" />
    <glyph glyph-name="Abreve" unicode="&#xe027;" horiz-adv-x="463" 
d="M453 0l-182 758h-63l-198 -758h59l56 216h208l52 -216h68zM317 273h-177l92 357zM320 967h-38q-3 -39 -18 -71t-34 -32q-20 0 -35 31t-18 72h-35q3 -49 17 -82q14 -32 32 -48q19 -18 40 -18t39 18q18 16 33 48q14 33 17 82z" />
    <glyph glyph-name="abreve" unicode="&#xe028;" horiz-adv-x="352" 
d="M320 0q-5 26 -7.5 48.5t-2.5 42.5q-1 20 -1 38v37v217q0 88 -15 121q-13 31 -44 51q-31 19 -69 19t-69 -16t-51 -50q-19 -32 -19 -62v-7h60v8q0 31 20 56q19 25 55 25q31 0 52 -26t21 -89v-77l-31 -9q-102 -30 -143 -74q-42 -42 -42 -121q0 -68 29 -108q30 -39 71 -39
q24 0 50 15q25 14 65 72q0 -30 9 -72h62zM251 224q0 -59 -13 -99q-14 -42 -37 -67q-25 -25 -48 -25q-15 0 -28 12q-16 11 -22 32q-8 22 -8 45q0 47 25 83q13 17 41 34.5t72 38.5l18 8v-62zM276 771h-38q-3 -39 -18 -71t-34 -32q-20 0 -35 31t-18 72h-35q3 -49 17 -82
q14 -32 32 -48q19 -18 40 -18t39 18q18 16 33 48q14 33 17 82z" />
    <glyph glyph-name="Aogonek" unicode="&#xe029;" horiz-adv-x="463" 
d="M453 0l-182 758h-63l-198 -758h59l56 216h208l52 -216h68zM317 273h-177l92 357zM450 -186v30q-13 -10 -25 -10q-21 0 -28 12q-9 12 -9 27q0 22 16 54q15 33 40 52h-70q-15 -29 -23 -55t-8 -52q0 -31 19 -53q19 -21 48 -21q21 0 40 16z" />
    <glyph glyph-name="aogonek" unicode="&#xe02a;" horiz-adv-x="352" 
d="M320 0q-5 26 -7.5 48.5t-2.5 42.5q-1 20 -1 38v37v217q0 88 -15 121q-13 31 -44 51q-31 19 -69 19t-69 -16t-51 -50q-19 -32 -19 -62v-7h60v8q0 31 20 56q19 25 55 25q31 0 52 -26t21 -89v-77l-31 -9q-102 -30 -143 -74q-42 -42 -42 -121q0 -68 29 -108q30 -39 71 -39
q24 0 50 15q25 14 65 72q0 -30 9 -72h62zM251 224q0 -59 -13 -99q-14 -42 -37 -67q-25 -25 -48 -25q-15 0 -28 12q-16 11 -22 32q-8 22 -8 45q0 47 25 83q13 17 41 34.5t72 38.5l18 8v-62zM321 -187v30q-13 -10 -25 -10q-21 0 -28 12q-9 12 -9 27q0 22 16 54q15 33 40 52
h-70q-15 -29 -23 -55t-8 -52q0 -31 19 -53q19 -21 48 -21q21 0 40 16z" />
    <glyph glyph-name="Ccircumflex" unicode="&#xe02b;" horiz-adv-x="415" 
d="M390 623v3q0 36 -20 78q-20 40 -53 58q-34 19 -79 19q-93 0 -150 -101q-58 -101 -58 -301q0 -199 58 -301q59 -101 149 -101q44 0 79 18q34 20 53 58q19 39 19 78v5h-55v-5q0 -39 -21 -72q-21 -32 -72 -32q-73 0 -110 99q-36 97 -36 253q0 153 36 252t110 99q29 0 50 -12
q20 -13 32 -39q11 -25 11 -52v-4h57zM310 861l-59 129h-38l-60 -130h52l27 50l25 -49h53z" />
    <glyph glyph-name="ccircumflex" unicode="&#xe02c;" horiz-adv-x="347" 
d="M319 428v19q0 35 -17 64q-19 31 -46 46q-29 17 -68 17q-75 0 -117 -78q-41 -79 -41 -217q0 -137 41 -216q40 -78 117 -78q39 0 67 16q27 16 45 48q17 30 17 62v5h-53v-6q0 -28 -17 -53q-18 -22 -55 -22q-43 0 -73 57q-30 58 -30 187t30 186q28 58 73 58q37 0 54 -23
q18 -23 18 -52v-20h55zM265 641l-59 129h-38l-60 -130h52l27 50l25 -49h53z" />
    <glyph glyph-name="Cdotaccent" unicode="&#xe02d;" horiz-adv-x="415" 
d="M390 623v3q0 36 -20 78q-20 40 -53 58q-34 19 -79 19q-93 0 -150 -101q-58 -101 -58 -301q0 -199 58 -301q59 -101 149 -101q44 0 79 18q34 20 53 58q19 39 19 78v5h-55v-5q0 -39 -21 -72q-21 -32 -72 -32q-73 0 -110 99q-36 97 -36 253q0 153 36 252t110 99q29 0 50 -12
q20 -13 32 -39q11 -25 11 -52v-4h57zM260 845v63h-58v-63h58z" />
    <glyph glyph-name="cdotaccent" unicode="&#xe02e;" horiz-adv-x="347" 
d="M319 428v19q0 35 -17 64q-19 31 -46 46q-29 17 -68 17q-75 0 -117 -78q-41 -79 -41 -217q0 -137 41 -216q40 -78 117 -78q39 0 67 16q27 16 45 48q17 30 17 62v5h-53v-6q0 -28 -17 -53q-18 -22 -55 -22q-43 0 -73 57q-30 58 -30 187t30 186q28 58 73 58q37 0 54 -23
q18 -23 18 -52v-20h55zM216 625v63h-58v-63h58z" />
    <glyph glyph-name="Dcaron" unicode="&#xe02f;" horiz-adv-x="446" 
d="M417 382q0 121 -26 208q-13 42 -30 74t-40 52q-45 42 -142 42h-133v-758h142q91 0 137 49t69 134q23 86 23 199zM353 373q0 -107 -18 -177t-52 -103q-33 -33 -99 -33h-75v646h73q72 0 105 -37q34 -37 50 -113q16 -74 16 -183zM302 967h-47l-44 -81l-43 81h-46l56 -126h67
z" />
    <glyph glyph-name="dcaron" unicode="&#xe030;" horiz-adv-x="383" 
d="M342 0v788h-58v-325q-9 26 -17.5 43t-16.5 27q-15 21 -35 30q-20 11 -42 11q-67 0 -106 -84q-38 -87 -38 -212q0 -86 18 -155q18 -68 51 -103q32 -35 72 -35q21 0 41 7q19 7 37 28q17 20 35 72v-92h59zM285 281q0 -70 -12 -128t-36 -88q-23 -29 -51 -29q-42 0 -71 53
q-27 54 -27 194q0 117 28 179q28 60 71 60q46 0 72 -68q26 -69 26 -173zM454 868v71h-79v-100h39q0 -31 -4 -51q-3 -23 -12 -44q-7 -19 -22 -36v-42q25 17 44 45q8 14 14.5 29t11.5 32q8 35 8 96z" />
    <glyph glyph-name="Emacron" unicode="&#xe031;" horiz-adv-x="366" 
d="M335 0v56h-226v313h183v53h-183v280h209v56h-272v-758h289zM277 819v39h-174v-39h174z" />
    <glyph glyph-name="emacron" unicode="&#xe032;" horiz-adv-x="366" 
d="M332 283v29q0 100 -19 154q-18 55 -50 81q-32 27 -72 27q-70 0 -117 -85q-45 -84 -45 -214q0 -126 43 -208q42 -82 120 -82q39 0 68 16q30 16 48 48q18 31 18 62v19h-53v-20q0 -28 -18 -52q-17 -23 -57 -23q-54 -2 -84 69q-30 70 -30 179h248zM279 328h-193q9 90 37 140
q29 50 61 50q27 0 49 -22q21 -21 33 -65q13 -42 13 -91v-12zM274 622v39h-174v-39h174z" />
    <glyph glyph-name="Ebreve" unicode="&#xe033;" horiz-adv-x="366" 
d="M335 0v56h-226v313h183v53h-183v280h209v56h-272v-758h289zM279 967h-38q-3 -39 -18 -71t-34 -32q-20 0 -35 31t-18 72h-35q3 -49 17 -82q14 -32 32 -48q19 -18 40 -18t39 18q18 16 33 48q14 33 17 82z" />
    <glyph glyph-name="ebreve" unicode="&#xe034;" horiz-adv-x="366" 
d="M332 283v29q0 100 -19 154q-18 55 -50 81q-32 27 -72 27q-70 0 -117 -85q-45 -84 -45 -214q0 -126 43 -208q42 -82 120 -82q39 0 68 16q30 16 48 48q18 31 18 62v19h-53v-20q0 -28 -18 -52q-17 -23 -57 -23q-54 -2 -84 69q-30 70 -30 179h248zM279 328h-193q9 90 37 140
q29 50 61 50q27 0 49 -22q21 -21 33 -65q13 -42 13 -91v-12zM276 770h-38q-3 -39 -18 -71t-34 -32q-20 0 -35 31t-18 72h-35q3 -49 17 -82q14 -32 32 -48q19 -18 40 -18t39 18q18 16 33 48q14 33 17 82z" />
    <glyph glyph-name="Edotaccent" unicode="&#xe035;" horiz-adv-x="366" 
d="M335 0v56h-226v313h183v53h-183v280h209v56h-272v-758h289zM219 822v63h-58v-63h58z" />
    <glyph glyph-name="edotaccent" unicode="&#xe036;" horiz-adv-x="366" 
d="M332 283v29q0 100 -19 154q-18 55 -50 81q-32 27 -72 27q-70 0 -117 -85q-45 -84 -45 -214q0 -126 43 -208q42 -82 120 -82q39 0 68 16q30 16 48 48q18 31 18 62v19h-53v-20q0 -28 -18 -52q-17 -23 -57 -23q-54 -2 -84 69q-30 70 -30 179h248zM279 328h-193q9 90 37 140
q29 50 61 50q27 0 49 -22q21 -21 33 -65q13 -42 13 -91v-12zM216 625v63h-58v-63h58z" />
    <glyph glyph-name="Eogonek" unicode="&#xe037;" horiz-adv-x="366" 
d="M335 0v56h-226v313h183v53h-183v280h209v56h-272v-758h289zM244 -191v30q-13 -10 -25 -10q-21 0 -28 12q-9 12 -9 27q0 22 16 54q15 33 40 52h-70q-15 -29 -23 -55t-8 -52q0 -31 19 -53q19 -21 48 -21q21 0 40 16z" />
    <glyph glyph-name="eogonek" unicode="&#xe038;" horiz-adv-x="366" 
d="M332 283v29q0 100 -19 154q-18 55 -50 81q-32 27 -72 27q-70 0 -117 -85q-45 -84 -45 -214q0 -126 43 -208q42 -82 120 -82q39 0 68 16q30 16 48 48q18 31 18 62v19h-53v-20q0 -28 -18 -52q-17 -23 -57 -23q-54 -2 -84 69q-30 70 -30 179h248zM279 328h-193q9 90 37 140
q29 50 61 50q27 0 49 -22q21 -21 33 -65q13 -42 13 -91v-12zM241 -196v30q-13 -10 -25 -10q-21 0 -28 12q-9 12 -9 27q0 22 16 54q15 33 40 52h-70q-15 -29 -23 -55t-8 -52q0 -31 19 -53q19 -21 48 -21q21 0 40 16z" />
    <glyph glyph-name="Ecaron" unicode="&#xe039;" horiz-adv-x="366" 
d="M335 0v56h-226v313h183v53h-183v280h209v56h-272v-758h289zM280 967h-47l-44 -81l-43 81h-46l56 -126h67z" />
    <glyph glyph-name="ecaron" unicode="&#xe03a;" horiz-adv-x="366" 
d="M332 283v29q0 100 -19 154q-18 55 -50 81q-32 27 -72 27q-70 0 -117 -85q-45 -84 -45 -214q0 -126 43 -208q42 -82 120 -82q39 0 68 16q30 16 48 48q18 31 18 62v19h-53v-20q0 -28 -18 -52q-17 -23 -57 -23q-54 -2 -84 69q-30 70 -30 179h248zM279 328h-193q9 90 37 140
q29 50 61 50q27 0 49 -22q21 -21 33 -65q13 -42 13 -91v-12zM277 770h-47l-44 -81l-43 81h-46l56 -126h67z" />
    <glyph glyph-name="Gcircumflex" unicode="&#xe03b;" horiz-adv-x="429" 
d="M390 34v326h-164v-47h105v-252q-53 -31 -94 -31q-68 0 -106 95q-20 47 -29 111t-9 145q0 164 37 256q36 93 107 93q28 0 48 -13q21 -12 33 -35q13 -22 13 -48v-5h57v4q0 36 -21 74q-20 37 -56 55q-35 18 -78 18q-64 0 -108 -47q-45 -45 -71 -130q-12 -42 -18.5 -100
t-6.5 -133q0 -133 27 -218q14 -42 31 -74.5t40 -55.5q45 -45 117 -45q69 0 146 57zM310 860l-59 129h-38l-60 -130h52l27 50l25 -49h53z" />
    <glyph glyph-name="gcircumflex" unicode="&#xe03c;" horiz-adv-x="388" 
d="M342 102v456h-58v-86q-26 62 -52 81q-26 21 -58 21q-43 0 -77 -34q-32 -35 -50 -103q-18 -69 -18 -153q0 -126 40 -206q40 -78 102 -78q38 0 67 29q28 28 46 86v-72q0 -105 -14 -147q-14 -41 -35 -59q-22 -19 -53 -19q-39 0 -63 21q-25 21 -25 55v7h-53v-6q0 -33 17 -60
q16 -29 51 -46q34 -17 76 -17q44 0 79 27q33 26 56 80q11 27 16.5 82.5t5.5 140.5zM286 298q0 -55 -7 -99t-21 -79q-27 -70 -72 -70q-27 0 -51 28q-25 28 -35 80q-12 54 -12 125q0 57 7 100.5t21 75.5q28 63 72 63q38 0 69 -63q29 -63 29 -161zM265 641l-59 129h-38
l-60 -130h52l27 50l25 -49h53z" />
    <glyph glyph-name="Gdotaccent" unicode="&#xe03d;" horiz-adv-x="429" 
d="M390 34v326h-164v-47h105v-252q-53 -31 -94 -31q-68 0 -106 95q-20 47 -29 111t-9 145q0 164 37 256q36 93 107 93q28 0 48 -13q21 -12 33 -35q13 -22 13 -48v-5h57v4q0 36 -21 74q-20 37 -56 55q-35 18 -78 18q-64 0 -108 -47q-45 -45 -71 -130q-12 -42 -18.5 -100
t-6.5 -133q0 -133 27 -218q14 -42 31 -74.5t40 -55.5q45 -45 117 -45q69 0 146 57zM260 844v63h-58v-63h58z" />
    <glyph glyph-name="gdotaccent" unicode="&#xe03e;" horiz-adv-x="388" 
d="M342 102v456h-58v-86q-26 62 -52 81q-26 21 -58 21q-43 0 -77 -34q-32 -35 -50 -103q-18 -69 -18 -153q0 -126 40 -206q40 -78 102 -78q38 0 67 29q28 28 46 86v-72q0 -105 -14 -147q-14 -41 -35 -59q-22 -19 -53 -19q-39 0 -63 21q-25 21 -25 55v7h-53v-6q0 -33 17 -60
q16 -29 51 -46q34 -17 76 -17q44 0 79 27q33 26 56 80q11 27 16.5 82.5t5.5 140.5zM286 298q0 -55 -7 -99t-21 -79q-27 -70 -72 -70q-27 0 -51 28q-25 28 -35 80q-12 54 -12 125q0 57 7 100.5t21 75.5q28 63 72 63q38 0 69 -63q29 -63 29 -161zM216 625v63h-58v-63h58z" />
    <glyph glyph-name="Gcedilla" unicode="&#xe03f;" horiz-adv-x="429" 
d="M390 34v326h-164v-47h105v-252q-53 -31 -94 -31q-68 0 -106 95q-20 47 -29 111t-9 145q0 164 37 256q36 93 107 93q28 0 48 -13q21 -12 33 -35q13 -22 13 -48v-5h57v4q0 36 -21 74q-20 37 -56 55q-35 18 -78 18q-64 0 -108 -47q-45 -45 -71 -130q-12 -42 -18.5 -100
t-6.5 -133q0 -133 27 -218q14 -42 31 -74.5t40 -55.5q45 -45 117 -45q69 0 146 57zM239 -151q0 24 -10 44q-10 21 -43 31l19 53h-33l-27 -76q55 -10 55 -51q0 -14 -9 -26q-7 -13 -19 -13q-19 0 -37 15v-31q21 -14 49 -14t42 21q13 20 13 47z" />
    <glyph glyph-name="gcedilla" unicode="&#xe040;" horiz-adv-x="388" 
d="M342 102v456h-58v-86q-26 62 -52 81q-26 21 -58 21q-43 0 -77 -34q-32 -35 -50 -103q-18 -69 -18 -153q0 -126 40 -206q40 -78 102 -78q38 0 67 29q28 28 46 86v-72q0 -105 -14 -147q-14 -41 -35 -59q-22 -19 -53 -19q-39 0 -63 21q-25 21 -25 55v7h-53v-6q0 -33 17 -60
q16 -29 51 -46q34 -17 76 -17q44 0 79 27q33 26 56 80q11 27 16.5 82.5t5.5 140.5zM286 298q0 -55 -7 -99t-21 -79q-27 -70 -72 -70q-27 0 -51 28q-25 28 -35 80q-12 54 -12 125q0 57 7 100.5t21 75.5q28 63 72 63q38 0 69 -63q29 -63 29 -161zM238 -361q0 24 -10 44
q-10 21 -43 31l19 53h-33l-27 -76q55 -10 55 -51q0 -14 -9 -26q-7 -13 -19 -13q-19 0 -37 15v-31q21 -14 49 -14t42 21q13 20 13 47z" />
    <glyph glyph-name="gacute" unicode="&#xe041;" horiz-adv-x="388" 
d="M342 102v456h-58v-86q-26 62 -52 81q-26 21 -58 21q-43 0 -77 -34q-32 -35 -50 -103q-18 -69 -18 -153q0 -126 40 -206q40 -78 102 -78q38 0 67 29q28 28 46 86v-72q0 -105 -14 -147q-14 -41 -35 -59q-22 -19 -53 -19q-39 0 -63 21q-25 21 -25 55v7h-53v-6q0 -33 17 -60
q16 -29 51 -46q34 -17 76 -17q44 0 79 27q33 26 56 80q11 27 16.5 82.5t5.5 140.5zM286 298q0 -55 -7 -99t-21 -79q-27 -70 -72 -70q-27 0 -51 28q-25 28 -35 80q-12 54 -12 125q0 57 7 100.5t21 75.5q28 63 72 63q38 0 69 -63q29 -63 29 -161zM252 770h-55l-75 -128h45z
" />
    <glyph glyph-name="Hcircumflex" unicode="&#xe042;" horiz-adv-x="439" 
d="M393 0v758h-63v-351h-221v351h-63v-758h63v358h221v-358h63zM297 838l-59 129h-38l-60 -130h52l27 50l25 -49h53z" />
    <glyph glyph-name="hcircumflex" unicode="&#xe043;" horiz-adv-x="372" 
d="M330 0v355q0 47 -3.5 80t-10.5 54q-15 43 -40 63q-26 22 -59 22q-23 0 -41 -12q-19 -10 -37 -33q-17 -21 -35 -67v326h-58v-788h58v289q0 82 14 129q13 45 36 71q24 26 49 26q20 0 39 -19q17 -20 24 -52q6 -33 6 -112v-332h58zM242 868l-59 129h-38l-60 -130h52l27 50
l25 -49h53z" />
    <glyph glyph-name="Hbar" unicode="&#xe044;" horiz-adv-x="439" 
d="M393 0v758h-63v-351h-221v351h-63v-758h63v358h221v-358h63zM363 525v49h-289v-49h289z" />
    <glyph glyph-name="hbar" unicode="&#xe045;" horiz-adv-x="372" 
d="M330 0v355q0 47 -3.5 80t-10.5 54q-15 43 -40 63q-26 22 -59 22q-23 0 -41 -12q-19 -10 -37 -33q-17 -21 -35 -67v326h-58v-788h58v289q0 82 14 129q13 45 36 71q24 26 49 26q20 0 39 -19q17 -20 24 -52q6 -33 6 -112v-332h58zM221 640v39h-174v-39h174z" />
    <glyph glyph-name="Itilde" unicode="&#xe046;" horiz-adv-x="155" 
d="M109 0v758h-63v-758h63zM247 933h-38q0 -56 -18 -56q-10 0 -36 20l-13 14q-22 22 -39 22q-25 0 -40 -27q-16 -28 -16 -85h38q0 48 22 48q9 0 26 -13l14 -14q20 -23 42 -23q17 0 30 13q14 14 20 35q7 21 8 66z" />
    <glyph glyph-name="itilde" unicode="&#xe047;" horiz-adv-x="149" 
d="M104 0v558h-58v-558h58zM287 722h-38q0 -56 -18 -56q-10 0 -36 20l-13 14q-22 22 -39 22q-25 0 -40 -27q-16 -28 -16 -85h38q0 48 22 48q9 0 26 -13l14 -14q20 -23 42 -23q17 0 30 13q14 14 20 35q7 21 8 66z" />
    <glyph glyph-name="Imacron" unicode="&#xe048;" horiz-adv-x="155" 
d="M109 0v758h-63v-758h63zM221 819v39h-174v-39h174z" />
    <glyph glyph-name="imacron" unicode="&#xe049;" horiz-adv-x="149" 
d="M104 0v558h-58v-558h58zM274 607v39h-174v-39h174z" />
    <glyph glyph-name="Iogonek" unicode="&#xe04a;" horiz-adv-x="155" 
d="M109 0v758h-63v-758h63zM154 -186v30q-13 -10 -25 -10q-21 0 -28 12q-9 12 -9 27q0 22 16 54q15 33 40 52h-70q-15 -29 -23 -55t-8 -52q0 -31 19 -53q19 -21 48 -21q21 0 40 16z" />
    <glyph glyph-name="iogonek" unicode="&#xe04b;" horiz-adv-x="149" 
d="M104 707v64h-58v-64h58zM104 0v558h-58v-558h58zM154 -186v30q-13 -10 -25 -10q-21 0 -28 12q-9 12 -9 27q0 22 16 54q15 33 40 52h-70q-15 -29 -23 -55t-8 -52q0 -31 19 -53q19 -21 48 -21q21 0 40 16z" />
    <glyph glyph-name="IJ" unicode="&#xe04c;" horiz-adv-x="155" 
d="M109 0v758h-63v-758h63zM420 236v522h-61v-540q0 -101 -8 -133q-8 -31 -24 -44q-17 -15 -36 -15q-18 0 -33 9q-15 7 -23 25q-3 8 -5 17t-2 20v5h-62v-4q0 -45 29 -83q30 -38 99 -38q43 0 68 22q24 21 41 67q17 48 17 170z" />
    <glyph glyph-name="ij" unicode="&#xe04d;" horiz-adv-x="149" 
d="M104 707v64h-58v-64h58zM104 0v558h-58v-558h58zM278 710v61h-58v-61h58zM277 0v558h-57v-566q0 -92 -18 -114q-20 -24 -49 -24q-5 0 -11.5 0.5t-14.5 1.5l-13 2v-59q14 -5 26.5 -6.5t23.5 -1.5q33 0 60 24q29 24 41 65q12 40 12 120z" />
    <glyph glyph-name="Kcedilla" unicode="&#xe04e;" horiz-adv-x="422" 
d="M412 0l-230 402l199 356h-71l-202 -362v362h-63v-758h63v395l225 -395h79zM150 -134q0 24 -10 44q-10 21 -43 31l19 53h-33l-27 -76q55 -10 55 -51q0 -14 -9 -26q-7 -13 -19 -13q-19 0 -37 15v-31q21 -14 49 -14t42 21q13 20 13 47z" />
    <glyph glyph-name="kcedilla" unicode="&#xe04f;" horiz-adv-x="342" 
d="M333 0l-157 299l150 259h-67l-154 -266v496h-60v-788h60v292l154 -292h74zM150 -134q0 24 -10 44q-10 21 -43 31l19 53h-33l-27 -76q55 -10 55 -51q0 -14 -9 -26q-7 -13 -19 -13q-19 0 -37 15v-31q21 -14 49 -14t42 21q13 20 13 47z" />
    <glyph glyph-name="Lacute" unicode="&#xe050;" horiz-adv-x="371" 
d="M361 0v56h-253v702h-63v-758h316zM203 967h-55l-75 -128h45z" />
    <glyph glyph-name="lacute" unicode="&#xe051;" horiz-adv-x="149" 
d="M104 0v788h-58v-788h58zM177 997h-55l-75 -128h45z" />
    <glyph glyph-name="Lcedilla" unicode="&#xe052;" horiz-adv-x="371" 
d="M361 0v56h-253v702h-63v-758h316zM255 -139q0 24 -10 44q-10 21 -43 31l19 53h-33l-27 -76q55 -10 55 -51q0 -14 -9 -26q-7 -13 -19 -13q-19 0 -37 15v-31q21 -14 49 -14t42 21q13 20 13 47z" />
    <glyph glyph-name="lcedilla" unicode="&#xe053;" horiz-adv-x="149" 
d="M104 0v788h-58v-788h58zM151 -139q0 24 -10 44q-10 21 -43 31l19 53h-33l-27 -76q55 -10 55 -51q0 -14 -9 -26q-7 -13 -19 -13q-19 0 -37 15v-31q21 -14 49 -14t42 21q13 20 13 47z" />
    <glyph glyph-name="Lcaron" unicode="&#xe054;" horiz-adv-x="371" 
d="M361 0v56h-253v702h-63v-758h316zM291 658v71h-79v-100h39q0 -31 -4 -51q-3 -23 -12 -44q-7 -19 -22 -36v-42q25 17 44 45q8 14 14.5 29t11.5 32q8 35 8 96z" />
    <glyph glyph-name="lcaron" unicode="&#xe055;" horiz-adv-x="149" 
d="M104 0v788h-58v-788h58zM215 688v71h-79v-100h39q0 -31 -4 -51q-3 -23 -12 -44q-7 -19 -22 -36v-42q25 17 44 45q8 14 14.5 29t11.5 32q8 35 8 96z" />
    <glyph glyph-name="Ldotaccent" unicode="&#xe056;" horiz-adv-x="371" 
d="M361 0v56h-253v702h-63v-758h316zM246 364v63h-58v-63h58z" />
    <glyph glyph-name="ldotaccent" unicode="&#xe057;" horiz-adv-x="149" 
d="M104 0v788h-58v-788h58zM194 364v63h-58v-63h58z" />
    <glyph glyph-name="Nacute" unicode="&#xe058;" horiz-adv-x="451" 
d="M405 0v758h-58v-538l1 -59l-20 60l-221 537h-62v-758h59v536l-1 61l18 -56l221 -541h63zM302 967h-55l-75 -128h45z" />
    <glyph glyph-name="nacute" unicode="&#xe059;" horiz-adv-x="372" 
d="M330 0v355q0 47 -3.5 80t-10.5 54q-15 43 -40 63q-26 22 -59 22q-23 0 -41 -12q-19 -10 -37 -33q-17 -21 -35 -67v96h-58v-558h58v289q0 82 14 129q13 45 36 71q24 26 49 26q19 0 38 -19q17 -19 25 -52q6 -33 6 -112v-332h58zM252 770h-55l-75 -128h45z" />
    <glyph glyph-name="Ncedilla" unicode="&#xe05a;" horiz-adv-x="451" 
d="M405 0v758h-58v-538l1 -59l-20 60l-221 537h-62v-758h59v536l-1 61l18 -56l221 -541h63zM150 -134q0 24 -10 44q-10 21 -43 31l19 53h-33l-27 -76q55 -10 55 -51q0 -14 -9 -26q-7 -13 -19 -13q-19 0 -37 15v-31q21 -14 49 -14t42 21q13 20 13 47z" />
    <glyph glyph-name="ncedilla" unicode="&#xe05b;" horiz-adv-x="372" 
d="M330 0v355q0 47 -3.5 80t-10.5 54q-15 43 -40 63q-26 22 -59 22q-23 0 -41 -12q-19 -10 -37 -33q-17 -21 -35 -67v96h-58v-558h58v289q0 82 14 129q13 45 36 71q24 26 49 26q19 0 38 -19q17 -19 25 -52q6 -33 6 -112v-332h58zM151 -134q0 24 -10 44q-10 21 -43 31l19 53
h-33l-27 -76q55 -10 55 -51q0 -14 -9 -26q-7 -13 -19 -13q-19 0 -37 15v-31q21 -14 49 -14t42 21q13 20 13 47z" />
    <glyph glyph-name="Ncaron" unicode="&#xe05c;" horiz-adv-x="451" 
d="M405 0v758h-58v-538l1 -59l-20 60l-221 537h-62v-758h59v536l-1 61l18 -56l221 -541h63zM314 967h-47l-44 -81l-43 81h-46l56 -126h67z" />
    <glyph glyph-name="ncaron" unicode="&#xe05d;" horiz-adv-x="372" 
d="M330 0v355q0 47 -3.5 80t-10.5 54q-15 43 -40 63q-26 22 -59 22q-23 0 -41 -12q-19 -10 -37 -33q-17 -21 -35 -67v96h-58v-558h58v289q0 82 14 129q13 45 36 71q24 26 49 26q19 0 38 -19q17 -19 25 -52q6 -33 6 -112v-332h58zM277 770h-47l-44 -81l-43 81h-46l56 -126h67
z" />
    <glyph glyph-name="ncommaaccent" unicode="&#xe05e;" horiz-adv-x="371" 
d="M330 0v355q0 47 -3.5 80t-10.5 54q-15 43 -40 63q-26 22 -59 22q-23 0 -41 -12q-19 -10 -37 -33q-17 -21 -35 -67v96h-58v-558h58v289q0 82 14 129q13 45 36 71q24 26 49 26q19 0 38 -19q17 -19 25 -52q6 -33 6 -112v-332h58zM233 -160v46v-65v-33v-29v-23v-27v29v40v62z
" />
    <glyph glyph-name="Omacron" unicode="&#xe05f;" horiz-adv-x="468" 
d="M438 379q0 193 -57 297q-56 104 -147 104t-147 -104q-57 -104 -57 -297q0 -194 57 -297q57 -105 147 -105t147 105q57 103 57 297zM375 379q0 -161 -37 -254q-38 -96 -104 -96t-103 96q-37 93 -37 254q0 159 37 254q37 96 103 96t104 -96q37 -95 37 -254zM321 841v39
h-174v-39h174z" />
    <glyph glyph-name="omacron" unicode="&#xe060;" horiz-adv-x="386" 
d="M356 279q0 146 -48 221q-48 74 -115 74q-68 0 -116 -74q-48 -75 -48 -221q0 -147 48 -220q48 -74 116 -74q67 0 115 74q48 73 48 220zM298 279q0 -112 -29 -176q-28 -67 -76 -67t-76 67q-29 67 -29 176t29 176q28 67 76 67t76 -67q29 -64 29 -176zM274 622v39h-174v-39
h174z" />
    <glyph glyph-name="Obreve" unicode="&#xe061;" horiz-adv-x="468" 
d="M438 379q0 193 -57 297q-56 104 -147 104t-147 -104q-57 -104 -57 -297q0 -194 57 -297q57 -105 147 -105t147 105q57 103 57 297zM375 379q0 -161 -37 -254q-38 -96 -104 -96t-103 96q-37 93 -37 254q0 159 37 254q37 96 103 96t104 -96q37 -95 37 -254zM322 989h-38
q-3 -39 -18 -71t-34 -32q-20 0 -35 31t-18 72h-35q3 -49 17 -82q14 -32 32 -48q19 -18 40 -18t39 18q18 16 33 48q14 33 17 82z" />
    <glyph glyph-name="obreve" unicode="&#xe062;" horiz-adv-x="386" 
d="M356 279q0 146 -48 221q-48 74 -115 74q-68 0 -116 -74q-48 -75 -48 -221q0 -147 48 -220q48 -74 116 -74q67 0 115 74q48 73 48 220zM298 279q0 -112 -29 -176q-28 -67 -76 -67t-76 67q-29 67 -29 176t29 176q28 67 76 67t76 -67q29 -64 29 -176zM276 770h-38
q-3 -39 -18 -71t-34 -32q-20 0 -35 31t-18 72h-35q3 -49 17 -82q14 -32 32 -48q19 -18 40 -18t39 18q18 16 33 48q14 33 17 82z" />
    <glyph glyph-name="Ohungarumlaut" unicode="&#xe063;" horiz-adv-x="468" 
d="M438 379q0 193 -57 297q-56 104 -147 104t-147 -104q-57 -104 -57 -297q0 -194 57 -297q57 -105 147 -105t147 105q57 103 57 297zM375 379q0 -161 -37 -254q-38 -96 -104 -96t-103 96q-37 93 -37 254q0 159 37 254q37 96 103 96t104 -96q37 -95 37 -254zM342 989h-39
l-37 -130h38zM256 989h-38l-37 -132h37z" />
    <glyph glyph-name="ohungarumlaut" unicode="&#xe064;" horiz-adv-x="386" 
d="M356 279q0 146 -48 221q-48 74 -115 74q-68 0 -116 -74q-48 -75 -48 -221q0 -147 48 -220q48 -74 116 -74q67 0 115 74q48 73 48 220zM298 279q0 -112 -29 -176q-28 -67 -76 -67t-76 67q-29 67 -29 176t29 176q28 67 76 67t76 -67q29 -64 29 -176zM290 770h-39l-37 -130
h38zM204 770h-38l-37 -132h37z" />
    <glyph glyph-name="Racute" unicode="&#xe065;" horiz-adv-x="386" 
d="M390 0l-76 220q-4 12 -9 24.5t-11 26.5q-5 14 -10 23.5t-9 16.5q-7 11 -24 25q21 14 36.5 28.5t25.5 31.5q21 32 31 74q6 20 8.5 41.5t2.5 44.5q0 58 -16 103q-14 46 -43 73q-29 26 -83 26h-148v-758h64v334h63q20 -29 35.5 -62t28.5 -71l67 -201h67zM292 561
q0 -45 -11 -87q-12 -40 -32 -62q-21 -21 -60 -21h-61v317h66q43 0 62 -22q8 -11 15 -24.5t12 -29.5q9 -32 9 -71zM303 967h-55l-75 -128h45z" />
    <glyph glyph-name="racute" unicode="&#xe066;" horiz-adv-x="246" 
d="M241 502v61q-14 11 -32 11q-20 0 -39 -12q-9 -7 -18 -15.5t-17 -20.5q-9 -12 -16.5 -28.5t-15.5 -37.5v98h-58v-558h59v290q0 124 31 171q30 49 62 49q12 0 28 -4zM252 770h-55l-75 -128h45z" />
    <glyph glyph-name="Rcedilla" unicode="&#xe067;" horiz-adv-x="386" 
d="M390 0l-76 220q-4 12 -9 24.5t-11 26.5q-5 14 -10 23.5t-9 16.5q-7 11 -24 25q21 14 36.5 28.5t25.5 31.5q21 32 31 74q6 20 8.5 41.5t2.5 44.5q0 58 -16 103q-14 46 -43 73q-29 26 -83 26h-148v-758h64v334h63q20 -29 35.5 -62t28.5 -71l67 -201h67zM292 561
q0 -45 -11 -87q-12 -40 -32 -62q-21 -21 -60 -21h-61v317h66q43 0 62 -22q8 -11 15 -24.5t12 -29.5q9 -32 9 -71zM170 -134q0 24 -10 44q-10 21 -43 31l19 53h-33l-27 -76q55 -10 55 -51q0 -14 -9 -26q-7 -13 -19 -13q-19 0 -37 15v-31q21 -14 49 -14t42 21q13 20 13 47z
" />
    <glyph glyph-name="rcedilla" unicode="&#xe068;" horiz-adv-x="246" 
d="M241 502v61q-14 11 -32 11q-20 0 -39 -12q-9 -7 -18 -15.5t-17 -20.5q-9 -12 -16.5 -28.5t-15.5 -37.5v98h-58v-558h59v290q0 124 31 171q30 49 62 49q12 0 28 -4zM150 -134q0 24 -10 44q-10 21 -43 31l19 53h-33l-27 -76q55 -10 55 -51q0 -14 -9 -26q-7 -13 -19 -13
q-19 0 -37 15v-31q21 -14 49 -14t42 21q13 20 13 47z" />
    <glyph glyph-name="Rcaron" unicode="&#xe069;" horiz-adv-x="386" 
d="M390 0l-76 220q-4 12 -9 24.5t-11 26.5q-5 14 -10 23.5t-9 16.5q-7 11 -24 25q21 14 36.5 28.5t25.5 31.5q21 32 31 74q6 20 8.5 41.5t2.5 44.5q0 58 -16 103q-14 46 -43 73q-29 26 -83 26h-148v-758h64v334h63q20 -29 35.5 -62t28.5 -71l67 -201h67zM292 561
q0 -45 -11 -87q-12 -40 -32 -62q-21 -21 -60 -21h-61v317h66q43 0 62 -22q8 -11 15 -24.5t12 -29.5q9 -32 9 -71zM280 967h-47l-44 -81l-43 81h-46l56 -126h67z" />
    <glyph glyph-name="rcaron" unicode="&#xe06a;" horiz-adv-x="246" 
d="M241 502v61q-14 11 -32 11q-20 0 -39 -12q-9 -7 -18 -15.5t-17 -20.5q-9 -12 -16.5 -28.5t-15.5 -37.5v98h-58v-558h59v290q0 124 31 171q30 49 62 49q12 0 28 -4zM277 770h-47l-44 -81l-43 81h-46l56 -126h67z" />
    <glyph glyph-name="Sacute" unicode="&#xe06b;" horiz-adv-x="386" 
d="M360 192q0 61 -24 112q-12 26 -35.5 50t-58.5 50l-30 22q-23 17 -38 30.5t-25 23.5q-19 22 -29 51q-10 30 -10 66q0 53 22 93t69 40q24 0 41 -8q17 -7 29 -25q9 -18 9 -36v-5h63v4q0 48 -30 84q-32 36 -106 36q-83 0 -120 -58q-39 -59 -39 -142q0 -49 13 -87
q13 -40 37 -70q13 -16 32.5 -31t43.5 -33l25 -18q49 -36 73 -70q24 -35 24 -91q0 -69 -28 -110q-27 -42 -69 -42q-47 0 -75 24q-28 25 -28 87v5h-60v-5q0 -49 19 -87q18 -40 54 -58q37 -17 89 -17q57 0 90 27q35 28 53 79q19 51 19 109zM274 989h-55l-75 -128h45z" />
    <glyph glyph-name="sacute" unicode="&#xe06c;" horiz-adv-x="324" 
d="M293 165q0 34 -7 58q-4 12 -9 23t-13 19q-12 13 -21 20q-5 4 -19 11t-35 19l-20 12l-27 15q-28 14 -41 35q-12 19 -12 50q0 41 19 69q18 27 53 27q30 0 47 -16q9 -8 13.5 -21t4.5 -27l55 -2q0 22 -6.5 43.5t-20.5 38.5q-27 35 -90 35q-64 0 -97 -49q-33 -48 -33 -111
q0 -46 16.5 -79.5t52.5 -50.5l40 -19l19 -13l29 -17q44 -23 44 -88q0 -43 -22 -78q-22 -34 -59 -34q-40 0 -58 24q-8 12 -12.5 29.5t-4.5 36.5l-53 1q0 -21 4.5 -41.5t12.5 -35.5q17 -32 44 -47q14 -9 31.5 -13t38.5 -4q67 0 101 52q35 52 35 128zM252 770h-55l-75 -128h45z
" />
    <glyph glyph-name="Scircumflex" unicode="&#xe06d;" horiz-adv-x="386" 
d="M360 192q0 61 -24 112q-12 26 -35.5 50t-58.5 50l-30 22q-23 17 -38 30.5t-25 23.5q-19 22 -29 51q-10 30 -10 66q0 53 22 93t69 40q24 0 41 -8q17 -7 29 -25q9 -18 9 -36v-5h63v4q0 48 -30 84q-32 36 -106 36q-83 0 -120 -58q-39 -59 -39 -142q0 -49 13 -87
q13 -40 37 -70q13 -16 32.5 -31t43.5 -33l25 -18q49 -36 73 -70q24 -35 24 -91q0 -69 -28 -110q-27 -42 -69 -42q-47 0 -75 24q-28 25 -28 87v5h-60v-5q0 -49 19 -87q18 -40 54 -58q37 -17 89 -17q57 0 90 27q35 28 53 79q19 51 19 109zM276 860l-59 129h-38l-60 -130h52
l27 50l25 -49h53z" />
    <glyph glyph-name="scircumflex" unicode="&#xe06e;" horiz-adv-x="324" 
d="M293 165q0 34 -7 58q-4 12 -9 23t-13 19q-12 13 -21 20q-5 4 -19 11t-35 19l-20 12l-27 15q-28 14 -41 35q-12 19 -12 50q0 41 19 69q18 27 53 27q30 0 47 -16q9 -8 13.5 -21t4.5 -27l55 -2q0 22 -6.5 43.5t-20.5 38.5q-27 35 -90 35q-64 0 -97 -49q-33 -48 -33 -111
q0 -46 16.5 -79.5t52.5 -50.5l40 -19l19 -13l29 -17q44 -23 44 -88q0 -43 -22 -78q-22 -34 -59 -34q-40 0 -58 24q-8 12 -12.5 29.5t-4.5 36.5l-53 1q0 -21 4.5 -41.5t12.5 -35.5q17 -32 44 -47q14 -9 31.5 -13t38.5 -4q67 0 101 52q35 52 35 128zM265 641l-59 129h-38
l-60 -130h52l27 50l25 -49h53z" />
    <glyph glyph-name="Tcedilla" unicode="&#xe06f;" horiz-adv-x="408" 
d="M398 709v49h-388v-49h164v-709h62v709h162zM256 -134q0 24 -10 44q-10 21 -43 31l19 53h-33l-27 -76q55 -10 55 -51q0 -14 -9 -26q-7 -13 -19 -13q-19 0 -37 15v-31q21 -14 49 -14t42 21q13 20 13 47z" />
    <glyph glyph-name="tcedilla" unicode="&#xe070;" horiz-adv-x="282" 
d="M257 0v61q-36 -14 -51 -14q-22 0 -37 15q-14 13 -22 46q-4 16 -5.5 46t-1.5 71v286h102v47h-101v130l-58 -15v-115h-61v-48h61v-304q0 -95 13 -135q13 -43 39 -64q26 -22 58 -22q22 0 64 15zM240 -144q0 24 -10 44q-10 21 -43 31l19 53h-33l-27 -76q55 -10 55 -51
q0 -14 -9 -26q-7 -13 -19 -13q-19 0 -37 15v-31q21 -14 49 -14t42 21q13 20 13 47z" />
    <glyph glyph-name="Tcaron" unicode="&#xe071;" horiz-adv-x="408" 
d="M398 709v49h-388v-49h164v-709h62v709h162zM293 967h-47l-44 -81l-43 81h-46l56 -126h67z" />
    <glyph glyph-name="tcaron" unicode="&#xe072;" horiz-adv-x="282" 
d="M257 0v61q-36 -14 -51 -14q-22 0 -37 15q-14 13 -22 46q-4 16 -5.5 46t-1.5 71v286h102v47h-101v130l-58 -15v-115h-61v-48h61v-304q0 -95 13 -135q13 -43 39 -64q26 -22 58 -22q22 0 64 15zM337 730v71h-79v-100h39q0 -31 -4 -51q-3 -23 -12 -44q-7 -19 -22 -36v-42
q25 17 44 45q8 14 14.5 29t11.5 32q8 35 8 96z" />
    <glyph glyph-name="Tbar" unicode="&#xe073;" horiz-adv-x="408" 
d="M398 709v49h-388v-49h164v-709h62v709h162zM290 361v39h-174v-39h174z" />
    <glyph glyph-name="tbar" unicode="&#xe074;" horiz-adv-x="282" 
d="M257 0v61q-36 -14 -51 -14q-22 0 -37 15q-14 13 -22 46q-4 16 -5.5 46t-1.5 71v286h102v47h-101v130l-58 -15v-115h-61v-48h61v-304q0 -95 13 -135q13 -43 39 -64q26 -22 58 -22q22 0 64 15zM228 311v39h-174v-39h174z" />
    <glyph glyph-name="Utilde" unicode="&#xe075;" 
d="M385 280v478h-57v-469q0 -69 -3.5 -113.5t-9.5 -65.5q-14 -45 -38 -63q-25 -19 -59 -19q-35 0 -63 19q-27 18 -41 58q-13 36 -13 148v505h-62v-501q0 -126 21 -178t64 -77q41 -25 94 -25q56 0 91 31q36 31 56 85q20 55 20 187zM311 933h-38q0 -56 -18 -56q-10 0 -36 20
l-13 14q-22 22 -39 22q-25 0 -40 -27q-16 -28 -16 -85h38q0 48 22 48q9 0 26 -13l14 -14q20 -23 42 -23q17 0 30 13q14 14 20 35q7 21 8 66z" />
    <glyph glyph-name="utilde" unicode="&#xe076;" horiz-adv-x="371" 
d="M325 0v558h-57v-290q0 -81 -14 -129q-14 -47 -37 -71q-23 -26 -48 -26q-31 0 -50 27q-20 26 -20 156v333h-58v-353q0 -134 33 -177t81 -43q23 0 40 10q18 11 35 32q18 21 36 65v-92h59zM287 722h-38q0 -56 -18 -56q-10 0 -36 20l-13 14q-22 22 -39 22q-25 0 -40 -27
q-16 -28 -16 -85h38q0 48 22 48q9 0 26 -13l14 -14q20 -23 42 -23q17 0 30 13q14 14 20 35q7 21 8 66z" />
    <glyph glyph-name="Umacron" unicode="&#xe077;" 
d="M385 280v478h-57v-469q0 -69 -3.5 -113.5t-9.5 -65.5q-14 -45 -38 -63q-25 -19 -59 -19q-35 0 -63 19q-27 18 -41 58q-13 36 -13 148v505h-62v-501q0 -126 21 -178t64 -77q41 -25 94 -25q56 0 91 31q36 31 56 85q20 55 20 187zM298 819v39h-174v-39h174z" />
    <glyph glyph-name="umacron" unicode="&#xe078;" horiz-adv-x="371" 
d="M325 0v558h-57v-290q0 -81 -14 -129q-14 -47 -37 -71q-23 -26 -48 -26q-31 0 -50 27q-20 26 -20 156v333h-58v-353q0 -134 33 -177t81 -43q23 0 40 10q18 11 35 32q18 21 36 65v-92h59zM274 607v39h-174v-39h174z" />
    <glyph glyph-name="Ubreve" unicode="&#xe079;" 
d="M385 280v478h-57v-469q0 -69 -3.5 -113.5t-9.5 -65.5q-14 -45 -38 -63q-25 -19 -59 -19q-35 0 -63 19q-27 18 -41 58q-13 36 -13 148v505h-62v-501q0 -126 21 -178t64 -77q41 -25 94 -25q56 0 91 31q36 31 56 85q20 55 20 187zM300 967h-38q-3 -39 -18 -71t-34 -32
q-20 0 -35 31t-18 72h-35q3 -49 17 -82q14 -32 32 -48q19 -18 40 -18t39 18q18 16 33 48q14 33 17 82z" />
    <glyph glyph-name="ubreve" unicode="&#xe07a;" horiz-adv-x="371" 
d="M325 0v558h-57v-290q0 -81 -14 -129q-14 -47 -37 -71q-23 -26 -48 -26q-31 0 -50 27q-20 26 -20 156v333h-58v-353q0 -134 33 -177t81 -43q23 0 40 10q18 11 35 32q18 21 36 65v-92h59zM276 755h-38q-3 -39 -18 -71t-34 -32q-20 0 -35 31t-18 72h-35q3 -49 17 -82
q14 -32 32 -48q19 -18 40 -18t39 18q18 16 33 48q14 33 17 82z" />
    <glyph glyph-name="Uring" unicode="&#xe07b;" 
d="M385 280v478h-57v-469q0 -69 -3.5 -113.5t-9.5 -65.5q-14 -45 -38 -63q-25 -19 -59 -19q-35 0 -63 19q-27 18 -41 58q-13 36 -13 148v505h-62v-501q0 -126 21 -178t64 -77q41 -25 94 -25q56 0 91 31q36 31 56 85q20 55 20 187zM267 903q0 35 -16 61q-17 26 -40 26
t-40 -26q-16 -26 -16 -61t16 -60q17 -26 40 -26t40 26q16 25 16 60zM240 902q0 -22 -8 -38q-9 -17 -21 -17t-21 17q-8 16 -8 38q0 21 8 39q9 16 21 16t21 -16q8 -18 8 -39z" />
    <glyph glyph-name="uring" unicode="&#xe07c;" horiz-adv-x="371" 
d="M325 0v558h-57v-290q0 -81 -14 -129q-14 -47 -37 -71q-23 -26 -48 -26q-31 0 -50 27q-20 26 -20 156v333h-58v-353q0 -134 33 -177t81 -43q23 0 40 10q18 11 35 32q18 21 36 65v-92h59zM243 691q0 35 -16 61q-17 26 -40 26t-40 -26q-16 -26 -16 -61t16 -60q17 -26 40 -26
t40 26q16 25 16 60zM216 690q0 -22 -8 -38q-9 -17 -21 -17t-21 17q-8 16 -8 38q0 21 8 39q9 16 21 16t21 -16q8 -18 8 -39z" />
    <glyph glyph-name="Uhungarumlaut" unicode="&#xe07d;" 
d="M385 280v478h-57v-469q0 -69 -3.5 -113.5t-9.5 -65.5q-14 -45 -38 -63q-25 -19 -59 -19q-35 0 -63 19q-27 18 -41 58q-13 36 -13 148v505h-62v-501q0 -126 21 -178t64 -77q41 -25 94 -25q56 0 91 31q36 31 56 85q20 55 20 187zM323 967h-39l-37 -130h38zM237 967h-38
l-37 -132h37z" />
    <glyph glyph-name="uhungarumlaut" unicode="&#xe07e;" horiz-adv-x="371" 
d="M325 0v558h-57v-290q0 -81 -14 -129q-14 -47 -37 -71q-23 -26 -48 -26q-31 0 -50 27q-20 26 -20 156v333h-58v-353q0 -134 33 -177t81 -43q23 0 40 10q18 11 35 32q18 21 36 65v-92h59zM290 755h-39l-37 -130h38zM204 755h-38l-37 -132h37z" />
    <glyph glyph-name="Uogonek" unicode="&#xe07f;" 
d="M385 280v478h-57v-469q0 -69 -3.5 -113.5t-9.5 -65.5q-14 -45 -38 -63q-25 -19 -59 -19q-35 0 -63 19q-27 18 -41 58q-13 36 -13 148v505h-62v-501q0 -126 21 -178t64 -77q41 -25 94 -25q56 0 91 31q36 31 56 85q20 55 20 187zM240 -203v30q-13 -10 -25 -10q-21 0 -28 12
q-9 12 -9 27q0 22 16 54q15 33 40 52h-70q-15 -29 -23 -55t-8 -52q0 -31 19 -53q19 -21 48 -21q21 0 40 16z" />
    <glyph glyph-name="uogonek" unicode="&#xe080;" horiz-adv-x="371" 
d="M325 0v558h-57v-290q0 -81 -14 -129q-14 -47 -37 -71q-23 -26 -48 -26q-31 0 -50 27q-20 26 -20 156v333h-58v-353q0 -134 33 -177t81 -43q23 0 40 10q18 11 35 32q18 21 36 65v-92h59zM335 -187v30q-13 -10 -25 -10q-21 0 -28 12q-9 12 -9 27q0 22 16 54q15 33 40 52
h-70q-15 -29 -23 -55t-8 -52q0 -31 19 -53q19 -21 48 -21q21 0 40 16z" />
    <glyph glyph-name="Wcircumflex" unicode="&#xe081;" horiz-adv-x="602" 
d="M578 758h-54l-80 -537l-11 -102h-1l-12 106l-86 533h-61l-88 -534l-12 -103h-1l-12 105l-77 532h-59l109 -758h65l90 537l12 110v0l13 -104l88 -543h65zM379 838l-59 129h-38l-60 -130h52l27 50l25 -49h53z" />
    <glyph glyph-name="wcircumflex" unicode="&#xe082;" horiz-adv-x="497" 
d="M487 558h-54l-61 -348l-12 -106h-1l-16 113l-68 341h-58l-62 -345l-11 -112h-1l-11 108l-62 349h-60l99 -558h60l64 359l13 103v0l12 -98l71 -364h59zM265 626l-59 129h-38l-60 -130h52l27 50l25 -49h53z" />
    <glyph glyph-name="Ycircumflex" unicode="&#xe083;" horiz-adv-x="388" 
d="M380 758h-60l-119 -305l-120 305h-73l156 -401v-357h63v357zM272 838l-59 129h-38l-60 -130h52l27 50l25 -49h53z" />
    <glyph glyph-name="ycircumflex" unicode="&#xe084;" horiz-adv-x="364" 
d="M355 558h-56l-109 -415l-116 415h-63l151 -539l-6 -24q-10 -42 -18.5 -68.5t-14.5 -38.5q-12 -25 -31 -36q-18 -12 -42 -12h-33v-52h43q35 0 59 16q23 15 42 52q20 38 50 150zM265 626l-59 129h-38l-60 -130h52l27 50l25 -49h53z" />
    <glyph glyph-name="Zacute" unicode="&#xe085;" horiz-adv-x="366" 
d="M338 0v66h-254l249 611v81h-292v-57h234l-251 -610v-91h314zM258 967h-55l-75 -128h45z" />
    <glyph glyph-name="zacute" unicode="&#xe086;" horiz-adv-x="352" 
d="M318 0v51h-229l222 433v74h-270v-48l216 -1l-226 -431v-78h287zM252 755h-55l-75 -128h45z" />
    <glyph glyph-name="Zdotaccent" unicode="&#xe087;" horiz-adv-x="366" 
d="M338 0v66h-254l249 611v81h-292v-57h234l-251 -610v-91h314zM211 822v63h-58v-63h58z" />
    <glyph glyph-name="zdotaccent" unicode="&#xe088;" horiz-adv-x="352" 
d="M318 0v51h-229l222 433v74h-270v-48l216 -1l-226 -431v-78h287zM216 610v63h-58v-63h58z" />
    <glyph glyph-name="Scommaaccent" unicode="&#xe089;" horiz-adv-x="386" 
d="M360 192q0 61 -24 112q-12 26 -35.5 50t-58.5 50l-30 22q-23 17 -38 30.5t-25 23.5q-19 22 -29 51q-10 30 -10 66q0 53 22 93t69 40q24 0 41 -8q17 -7 29 -25q9 -18 9 -36v-5h63v4q0 48 -30 84q-32 36 -106 36q-83 0 -120 -58q-39 -59 -39 -142q0 -49 13 -87
q13 -40 37 -70q13 -16 32.5 -31t43.5 -33l25 -18q49 -36 73 -70q24 -35 24 -91q0 -69 -28 -110q-27 -42 -69 -42q-47 0 -75 24q-28 25 -28 87v5h-60v-5q0 -49 19 -87q18 -40 54 -58q37 -17 89 -17q57 0 90 27q35 28 53 79q19 51 19 109zM194 -183v46v-65v-33v-29v-23v-27v29
v40v62z" />
    <glyph glyph-name="scommaaccent" unicode="&#xe08a;" horiz-adv-x="324" 
d="M293 165q0 34 -7 58q-4 12 -9 23t-13 19q-12 13 -21 20q-5 4 -19 11t-35 19l-20 12l-27 15q-28 14 -41 35q-12 19 -12 50q0 41 19 69q18 27 53 27q30 0 47 -16q9 -8 13.5 -21t4.5 -27l55 -2q0 22 -6.5 43.5t-20.5 38.5q-27 35 -90 35q-64 0 -97 -49q-33 -48 -33 -111
q0 -46 16.5 -79.5t52.5 -50.5l40 -19l19 -13l29 -17q44 -23 44 -88q0 -43 -22 -78q-22 -34 -59 -34q-40 0 -58 24q-8 12 -12.5 29.5t-4.5 36.5l-53 1q0 -21 4.5 -41.5t12.5 -35.5q17 -32 44 -47q14 -9 31.5 -13t38.5 -4q67 0 101 52q35 52 35 128zM156 -175v46v-65v-33v-29
v-23v-27v29v40v62z" />
    <glyph glyph-name="Tcommaaccent" unicode="&#xe08b;" horiz-adv-x="407" 
d="M398 709v49h-388v-49h164v-709h62v709h162zM200 -160v46v-65v-33v-29v-23v-27v29v40v62z" />
    <glyph glyph-name="tcommaaccent" unicode="&#xe08c;" horiz-adv-x="282" 
d="M257 0v61q-36 -14 -51 -14q-22 0 -37 15q-14 13 -22 46q-4 16 -5.5 46t-1.5 71v286h102v47h-101v130l-58 -15v-115h-61v-48h61v-304q0 -95 13 -135q13 -43 39 -64q26 -22 58 -22q22 0 64 15zM136 -175v46v-65v-33v-29v-23v-27v29v40v62z" />
    <glyph glyph-name="Gcommaaccent" unicode="&#xe08d;" horiz-adv-x="429" 
d="M390 34v326h-164v-47h105v-252q-53 -31 -94 -31q-68 0 -106 95q-20 47 -29 111t-9 145q0 164 37 256q36 93 107 93q28 0 48 -13q21 -12 33 -35q13 -22 13 -48v-5h57v4q0 36 -21 74q-20 37 -56 55q-35 18 -78 18q-64 0 -108 -47q-45 -45 -71 -130q-12 -42 -18.5 -100
t-6.5 -133q0 -133 27 -218q14 -42 31 -74.5t40 -55.5q45 -45 117 -45q69 0 146 57zM228 -183v46v-65v-33v-29v-23v-27v29v40v62z" />
    <glyph glyph-name="gcommaaccent" unicode="&#xe08e;" horiz-adv-x="388" 
d="M342 102v456h-58v-86q-26 62 -52 81q-26 21 -58 21q-43 0 -77 -34q-32 -35 -50 -103q-18 -69 -18 -153q0 -126 40 -206q40 -78 102 -78q38 0 67 29q28 28 46 86v-72q0 -105 -14 -147q-14 -41 -35 -59q-22 -19 -53 -19q-39 0 -63 21q-25 21 -25 55v7h-53v-6q0 -33 17 -60
q16 -29 51 -46q34 -17 76 -17q44 0 79 27q33 26 56 80q11 27 16.5 82.5t5.5 140.5zM286 298q0 -55 -7 -99t-21 -79q-27 -70 -72 -70q-27 0 -51 28q-25 28 -35 80q-12 54 -12 125q0 57 7 100.5t21 75.5q28 63 72 63q38 0 69 -63q29 -63 29 -161zM226 652v103h-40q0 32 4 55
q3 22 11 47q7 20 22 37v44q-29 -19 -44 -47q-9 -14 -15 -30.5t-11 -33.5q-8 -37 -8 -101v-74h81z" />
    <glyph glyph-name="Lcommaaccent" unicode="&#xe08f;" horiz-adv-x="407" 
d="M361 0v56h-253v702h-63v-758h316zM200 -160v46v-65v-33v-29v-23v-27v29v40v62z" />
    <glyph glyph-name="lcommaaccent" unicode="&#xe090;" horiz-adv-x="149" 
d="M104 0v788h-58v-788h58zM9 -160v46v-65v-33v-29v-23v-27v29v40v62z" />
    <glyph glyph-name="Kcommaaccent" unicode="&#xe091;" horiz-adv-x="422" 
d="M412 0l-230 402l199 356h-71l-202 -362v362h-63v-758h63v395l225 -395h79zM225 -160v46v-65v-33v-29v-23v-27v29v40v62z" />
    <glyph glyph-name="kcommaaccent" unicode="&#xe092;" horiz-adv-x="342" 
d="M333 0l-157 299l150 259h-67l-154 -266v496h-60v-788h60v292l154 -292h74zM186 -160v46v-65v-33v-29v-23v-27v29v40v62z" />
    <glyph glyph-name="Ncommaaccent" unicode="&#xe093;" horiz-adv-x="451" 
d="M405 0v758h-58v-538l1 -59l-20 60l-221 537h-62v-758h59v536l-1 61l18 -56l221 -541h63zM253 -160v46v-65v-33v-29v-23v-27v29v40v62z" />
    <glyph glyph-name="Rcommaaccent" unicode="&#xe094;" horiz-adv-x="386" 
d="M390 0l-76 220q-4 12 -9 24.5t-11 26.5q-5 14 -10 23.5t-9 16.5q-7 11 -24 25q21 14 36.5 28.5t25.5 31.5q21 32 31 74q6 20 8.5 41.5t2.5 44.5q0 58 -16 103q-14 46 -43 73q-29 26 -83 26h-148v-758h64v334h63q20 -29 35.5 -62t28.5 -71l67 -201h67zM292 561
q0 -45 -11 -87q-12 -40 -32 -62q-21 -21 -60 -21h-61v317h66q43 0 62 -22q8 -11 15 -24.5t12 -29.5q9 -32 9 -71zM206 -160v46v-65v-33v-29v-23v-27v29v40v62z" />
    <glyph glyph-name="rcommaaccent" unicode="&#xe095;" horiz-adv-x="246" 
d="M241 502v61q-14 11 -32 11q-20 0 -39 -12q-9 -7 -18 -15.5t-17 -20.5q-9 -12 -16.5 -28.5t-15.5 -37.5v98h-58v-558h59v290q0 124 31 171q30 49 62 49q12 0 28 -4zM78 -160v46v-65v-33v-29v-23v-27v29v40v62z" />
    <glyph glyph-name="Dcroat" unicode="&#xe096;" horiz-adv-x="446" 
d="M416 382q0 124 -25 208q-26 85 -70 126q-45 42 -143 42h-133v-347h-57v-49h57v-362h142q92 0 137 49q46 49 69 134q23 86 23 199zM353 373q0 -108 -19 -177q-18 -72 -52 -104q-33 -33 -100 -33h-74v303h87v50h-86v294h73q71 0 104 -37q33 -35 50 -113q17 -79 17 -183z
" />
    <glyph glyph-name="commaaccent" unicode="&#xe097;" horiz-adv-x="193" 
d="M136 29v71h-79v-100h39q0 -31 -4 -51q-3 -23 -12 -44q-7 -19 -22 -36v-42q25 17 44 45q8 14 14.5 29t11.5 32q8 35 8 96z" />
    <glyph glyph-name="gravecmb" unicode="&#xe098;" horiz-adv-x="376" 
d="M251 666l-70 122h-56l81 -122h45z" />
    <glyph glyph-name="acutecmb" unicode="&#xe099;" horiz-adv-x="376" 
d="M253 788h-55l-75 -128h45z" />
    <glyph glyph-name="circumflexcmb" unicode="&#xe09a;" horiz-adv-x="376" 
d="M266 659l-59 129h-38l-60 -130h52l27 50l25 -49h53z" />
    <glyph glyph-name="tildecmb" unicode="&#xe09b;" horiz-adv-x="376" 
d="M288 754h-38q0 -56 -18 -56q-10 0 -36 20l-13 14q-22 22 -39 22q-25 0 -40 -27q-16 -28 -16 -85h38q0 48 22 48q9 0 26 -13l14 -14q20 -23 42 -23q17 0 30 13q14 14 20 35q7 21 8 66z" />
    <glyph glyph-name="macroncmb" unicode="&#xe09c;" horiz-adv-x="376" 
d="M275 640v39h-174v-39h174z" />
    <glyph glyph-name="brevecmb" unicode="&#xe09d;" horiz-adv-x="376" 
d="M277 788h-38q-3 -39 -18 -71t-34 -32q-20 0 -35 31t-18 72h-35q3 -49 17 -82q14 -32 32 -48q19 -18 40 -18t39 18q18 16 33 48q14 33 17 82z" />
    <glyph glyph-name="dotaccentcmb" unicode="&#xe09e;" horiz-adv-x="376" 
d="M217 643v63h-58v-63h58z" />
    <glyph glyph-name="dieresiscmb" unicode="&#xe09f;" horiz-adv-x="376" 
d="M285 643v63h-58v-63h58zM150 643v63h-58v-63h58z" />
    <glyph glyph-name="ringcmb" unicode="&#xe0a0;" horiz-adv-x="376" 
d="M244 724q0 35 -16 61q-17 26 -40 26t-40 -26q-16 -26 -16 -61t16 -60q17 -26 40 -26t40 26q16 25 16 60zM217 723q0 -22 -8 -38q-9 -17 -21 -17t-21 17q-8 16 -8 38q0 21 8 39q9 16 21 16t21 -16q8 -18 8 -39z" />
    <glyph glyph-name="hungarumlautcmb" unicode="&#xe0a1;" horiz-adv-x="376" 
d="M291 788h-39l-37 -130h38zM205 788h-38l-37 -132h37z" />
    <glyph glyph-name="caroncmb" unicode="&#xe0a2;" horiz-adv-x="376" 
d="M278 788h-47l-44 -81l-43 81h-46l56 -126h67z" />
    <glyph glyph-name="cedillacmb" unicode="&#xe0a3;" horiz-adv-x="376" 
d="M240 -144q0 24 -10 44q-10 21 -43 31l19 53h-33l-27 -76q55 -10 55 -51q0 -14 -9 -26q-7 -13 -19 -13q-19 0 -37 15v-31q21 -14 49 -14t42 21q13 20 13 47z" />
    <glyph glyph-name="ogonekcmb" unicode="&#xe0a4;" horiz-adv-x="376" 
d="M241 -196v30q-13 -10 -25 -10q-21 0 -28 12q-9 12 -9 27q0 22 16 54q15 33 40 52h-70q-15 -29 -23 -55t-8 -52q0 -31 19 -53q19 -21 48 -21q21 0 40 16z" />
    <glyph glyph-name="soliduslongoverlaycmb" unicode="&#xe0a5;" horiz-adv-x="212" 
 />
    <glyph glyph-name="Omegagreek" unicode="&#xe0a6;" horiz-adv-x="212" 
 />
    </font>
</defs>
</svg>
