<?xml version="1.0" standalone="no"?>
<!DOCTYPE svg PUBLIC "-//W3C//DTD SVG 1.1//EN" "http://www.w3.org/Graphics/SVG/1.1/DTD/svg11.dtd" >
<svg xmlns="http://www.w3.org/2000/svg" xmlns:xlink="http://www.w3.org/1999/xlink" version="1.1">
<metadata></metadata>
<defs>
<font id="blogger_sansmedium" horiz-adv-x="1064" >
<font-face units-per-em="2048" ascent="1556" descent="-492" />
<missing-glyph horiz-adv-x="614" />
<glyph unicode="&#xfb01;" horiz-adv-x="1236" d="M141 90v1000q0 96 30 171t83 121.5t122.5 71.5t151.5 27q18 1 40 0t55.5 -7t59.5 -17t45.5 -35t19.5 -56q0 -44 -32 -71t-77 -27q-17 0 -57.5 6t-65.5 6q-75 0 -114.5 -50t-39.5 -126v-113h183q43 0 73.5 -29t30.5 -71q0 -41 -30.5 -69.5t-73.5 -28.5h-183v-703 q0 -43 -29.5 -71.5t-80.5 -28.5q-52 0 -81.5 28.5t-29.5 71.5zM836 1343q0 51 37 86t92 35q54 0 91.5 -35.5t37.5 -85.5q-2 -51 -38.5 -85.5t-90.5 -34.5q-55 0 -92 35t-37 85zM854 88v854q0 42 32 72t79 30q45 0 77.5 -30t32.5 -72v-854q0 -44 -32 -73t-78 -29 q-47 0 -79 29t-32 73z" />
<glyph unicode="&#xfb02;" horiz-adv-x="1202" d="M141 90v1000q0 96 30 171t83 121.5t122.5 71.5t151.5 27q18 1 40 0t55.5 -7t59.5 -17t45.5 -35t19.5 -56q0 -44 -32 -71t-77 -27q-17 0 -57.5 6t-65.5 6q-75 0 -114.5 -50t-39.5 -126v-113h183q43 0 73.5 -29t30.5 -71q0 -41 -30.5 -69.5t-73.5 -28.5h-183v-703 q0 -43 -29.5 -71.5t-80.5 -28.5q-52 0 -81.5 28.5t-29.5 71.5zM836 209v1169q0 42 31.5 72.5t78.5 30.5q46 0 78.5 -30t32.5 -73v-1157q0 -36 4.5 -53t23.5 -37q27 -27 27 -55q0 -43 -31 -67.5t-84 -24.5q-161 0 -161 225z" />
<glyph horiz-adv-x="0" />
<glyph horiz-adv-x="682" />
<glyph unicode=" "  horiz-adv-x="614" />
<glyph unicode="&#x09;" horiz-adv-x="614" />
<glyph unicode="&#xa0;" horiz-adv-x="614" />
<glyph unicode="!" horiz-adv-x="505" d="M115 117q0 55 41 94t100 39q57 0 98 -39.5t41 -93.5q0 -56 -41 -96.5t-98 -40.5q-59 0 -100 40.5t-41 96.5zM139 1356q0 42 33 74t80 32q45 0 79 -32t34 -74l-21 -916q-1 -37 -29 -63.5t-63 -26.5q-39 0 -65.5 26.5t-26.5 63.5z" />
<glyph unicode="&#x22;" horiz-adv-x="741" d="M115 1012l49 463q7 36 43 59t78 18q44 -7 69.5 -39t16.5 -69q-3 -12 -49 -215t-58 -248q-6 -28 -32.5 -44.5t-57.5 -12.5q-28 4 -45 31t-14 57zM397 1012l52 463q6 36 42 59t78 18q43 -8 68.5 -40t15.5 -68q-9 -38 -52 -231.5t-52 -231.5q-8 -28 -34.5 -44.5t-55.5 -12.5 q-30 4 -47.5 31t-14.5 57z" />
<glyph unicode="#" horiz-adv-x="1148" d="M76 547q0 44 33.5 75t76.5 31h78l33 144h-49q-42 0 -76.5 30t-34.5 74q0 43 33.5 74t77.5 31h98l80 348q9 43 40.5 72.5t74.5 29.5q38 -4 66 -36.5t28 -65.5v-6q-8 -51 -20 -104.5t-32 -132.5t-26 -105h158l80 348q9 43 40 72.5t74 29.5q39 -4 67 -36.5t28 -65.5v-8 q-8 -51 -19.5 -103t-33 -135.5t-25.5 -101.5q61 0 103 -24.5t42 -80.5q0 -44 -32 -74t-78 -30h-82l-35 -144h55q37 0 74 -32t37 -74q0 -53 -37 -79t-96 -26h-80l-82 -352q-11 -47 -41.5 -74.5t-73.5 -27.5q-14 2 -24.5 12t-10.5 25q-27 4 -43 25.5t-16 51.5l78 340h-156 l-82 -352q-10 -39 -50 -64.5t-75 -25.5t-60.5 25.5t-25.5 62.5l80 354q-63 0 -101 25.5t-38 79.5zM475 653h158l33 144h-156z" />
<glyph unicode="$" horiz-adv-x="1050" d="M82 215q0 43 30.5 71.5t82.5 28.5q33 0 120 -30t158 -33v385q-40 13 -63.5 21t-61 22.5t-60.5 26.5t-54 31.5t-50 38.5t-40.5 45.5t-33 55.5t-19 66.5t-7.5 79.5q0 167 103.5 265t285.5 110v102q0 22 15.5 37.5t37.5 15.5t38 -15.5t16 -37.5v-102q56 -3 107 -12 t104.5 -26.5t85.5 -49t32 -72.5q0 -42 -31 -72t-81 -30q-30 0 -93 24t-124 29v-365q158 -54 220 -89q141 -80 164 -225q5 -32 5 -67q0 -170 -107 -274t-282 -125v-102q0 -22 -16 -38t-38 -16q-23 0 -38 16t-15 38v98q-63 2 -127.5 12.5t-125.5 30t-99.5 54t-38.5 77.5z M315 1036q0 -106 103 -149l55 -25v326q-158 -22 -158 -152zM580 258q155 28 155 170q-2 111 -100 152l-55 22v-344z" />
<glyph unicode="%" horiz-adv-x="1480" d="M82 1122q0 151 81 246.5t228 95.5q146 0 227.5 -96t81.5 -246q0 -152 -81.5 -248t-227.5 -96t-227.5 96t-81.5 248zM272 1126q0 -170 119 -170t119 170q0 76 -30 118t-89 42q-119 0 -119 -160zM297 123l8 20l690 1272q20 32 54 44t71 1t57.5 -43.5t10.5 -68.5 q-5 -19 -10 -27l-691 -1274q-18 -33 -53 -45.5t-74 -3.5q-38 13 -56 49.5t-7 75.5zM780 324q0 150 82 246t228 96q145 0 227 -96t82 -246q0 -152 -81.5 -248t-227.5 -96q-147 0 -228.5 96t-81.5 248zM971 328q0 -170 119 -170q118 0 118 170q0 159 -118 159 q-119 0 -119 -159z" />
<glyph unicode="&#x26;" horiz-adv-x="1355" d="M86 381q0 75 24.5 141t68.5 118.5t91 91t107 75.5q-152 171 -152 319t111.5 240t265.5 92q148 0 256.5 -86t108.5 -192q0 -45 -39 -73t-76 -28q-33 0 -54.5 17.5t-35 43t-28 51t-42.5 43t-69 17.5q-53 0 -115 -40t-62 -89q0 -27 11 -56t37 -64t42.5 -54.5t53.5 -60.5 l362 -400q17 28 44 83t44.5 87.5t44.5 60t56 27.5q42 0 79 -30t37 -74q0 -55 -47 -146t-110 -176l143 -167q27 -27 27 -66q0 -41 -30 -71.5t-75 -30.5q-25 0 -48 10t-51 37t-43 44.5t-50 61.5q-4 4 -6 7t-5 7t-6 7q-191 -176 -415 -176q-201 0 -328 113.5t-127 285.5z M305 397q0 -90 61.5 -154.5t163.5 -64.5q152 0 285 137l-305 338q-95 -55 -150 -114t-55 -142z" />
<glyph unicode="'" horiz-adv-x="495" d="M129 1012l51 463q6 36 42.5 59t78.5 18q43 -8 68.5 -40t15.5 -68q-9 -38 -52 -231.5t-52 -231.5q-7 -28 -34.5 -45t-56.5 -12q-30 4 -47 30.5t-14 57.5z" />
<glyph unicode="(" horiz-adv-x="606" d="M123 463q0 237 58 466t179 419q34 51 95 51q52 0 80 -33t28 -80q0 -25 -24 -65q-193 -327 -193 -758t193 -758q24 -40 24 -67q0 -45 -28 -78t-80 -33q-61 0 -95 51q-121 190 -179 418.5t-58 466.5z" />
<glyph unicode=")" horiz-adv-x="604" d="M41 -362q0 25 25 67q192 331 192 758t-192 758q-25 42 -25 65q0 47 28 80t81 33q60 0 94 -51q120 -191 178.5 -420.5t58.5 -464.5q0 -236 -58.5 -465t-178.5 -420q-34 -51 -94 -51q-53 0 -81 32.5t-28 78.5z" />
<glyph unicode="*" horiz-adv-x="1054" d="M102 1176q0 46 29 72t64 26q16 0 22 -2q38 -14 113.5 -43t113.5 -43l-18 184q-2 6 -2 16q0 39 25 75t77 36t77.5 -36.5t25.5 -74.5q0 -10 -2 -16l-19 -184q38 13 114 42.5t114 43.5q6 2 22 2q35 0 63.5 -26t28.5 -72q0 -39 -31 -65t-73 -34l-180 -37l149 -182q3 -5 5 -11 t2 -10t-0.5 -11t-0.5 -9q0 -37 -29.5 -67.5t-72.5 -30.5q-30 0 -59.5 25t-47.5 53.5t-44.5 75t-39.5 65.5q-14 -20 -40.5 -65.5t-44.5 -74.5t-47.5 -54t-59.5 -25q-43 0 -73 30.5t-30 67.5q0 31 7 41l147 182l-180 37q-43 8 -74 34.5t-31 64.5z" />
<glyph unicode="+" d="M25 725q0 43 33 73.5t77 30.5h287v306q0 42 32 74t78 32t78.5 -31t32.5 -75v-306h287q43 0 76.5 -30.5t33.5 -73.5q0 -44 -32 -75.5t-78 -31.5h-287v-305q0 -44 -32.5 -74t-78.5 -30t-78 31.5t-32 72.5v305h-287q-47 0 -78.5 31t-31.5 76z" />
<glyph unicode="," horiz-adv-x="512" d="M115 117q0 55 41 94t100 39q57 0 98 -39t41 -98q0 -65 -26.5 -154.5t-68.5 -157t-79 -67.5q-27 0 -46 14t-15 49q1 36 31.5 91t39.5 96q-51 8 -83.5 45t-32.5 88z" />
<glyph unicode="-" horiz-adv-x="858" d="M68 608q0 42 30.5 71.5t75.5 29.5h510q43 0 73.5 -30t30.5 -71t-30.5 -69.5t-73.5 -28.5h-510q-45 0 -75.5 28.5t-30.5 69.5z" />
<glyph unicode="." horiz-adv-x="512" d="M115 117q0 55 41 94t100 39q57 0 98 -39.5t41 -93.5q0 -56 -41 -96.5t-98 -40.5q-59 0 -100 40.5t-41 96.5z" />
<glyph unicode="/" horiz-adv-x="655" d="M-45 8q0 13 2 21l532 1454q12 33 39 51t60 18q45 0 76.5 -33t31.5 -75q0 -22 -8 -33l-524 -1431q-12 -32 -41 -51t-62 -19q-42 0 -74 29.5t-32 68.5z" />
<glyph unicode="0" d="M90 418v586q0 101 26 186.5t78.5 151.5t138.5 103.5t199 37.5q112 0 198.5 -37.5t139 -103.5t79 -151.5t26.5 -186.5v-586q0 -190 -118 -314t-325 -124q-208 0 -325 124t-117 314zM313 418q0 -108 57 -172t162 -64q104 0 162 64t58 172v602q0 122 -54 192t-166 70 q-113 0 -166 -70t-53 -192v-602z" />
<glyph unicode="1" d="M131 1104q0 64 49 92l406 248q30 18 63 18q51 0 86 -32.5t35 -79.5v-1262q0 -42 -34 -74t-79 -32q-46 0 -79 32t-33 74v1094l-207 -131q-2 -1 -11.5 -6.5t-12 -7t-11 -6t-12 -6t-11 -5t-12.5 -4.5t-11.5 -3t-13 -2.5t-12.5 -0.5q-39 0 -69.5 25t-30.5 69z" />
<glyph unicode="2" d="M82 111q0 57 14 88q27 61 64.5 119t90 116t91 96.5t104.5 100.5q20 19 65.5 60.5t71.5 65.5t62.5 65.5t56.5 74t35 75.5t15 85q0 98 -59.5 161.5t-164.5 63.5q-103 0 -184 -35q-16 -7 -42.5 -22.5t-48 -25t-42.5 -9.5q-43 0 -76 28.5t-33 71.5q0 45 44.5 83.5t112 61.5 t139 35.5t132.5 12.5q203 0 323 -115.5t120 -288.5q0 -217 -156 -383q-53 -57 -154.5 -151.5t-178.5 -176t-124 -163.5h510q46 0 78.5 -30t32.5 -73t-32.5 -72.5t-78.5 -29.5h-673q-51 0 -83 31.5t-32 79.5z" />
<glyph unicode="3" d="M96 156q0 42 30.5 72t74.5 30q29 0 70 -19.5t94 -39t112 -19.5q73 0 127.5 24t84 64.5t43 86t13.5 96.5q0 116 -69 170.5t-187 54.5q-30 0 -61 -11.5t-53 -11.5q-39 0 -67.5 30t-28.5 69q0 38 10 55l336 424h-392q-47 0 -78.5 30.5t-31.5 73.5q0 39 32.5 75t77.5 36h572 q48 0 83.5 -33t35.5 -84q0 -37 -27 -76q-260 -323 -311 -387q172 -18 277.5 -124.5t105.5 -280.5q0 -85 -27.5 -166.5t-81 -152.5t-145.5 -114.5t-209 -43.5q-34 0 -77.5 3t-105 14.5t-110 29t-83 50.5t-34.5 75z" />
<glyph unicode="4" d="M61 406q0 27 19 63l393 946q12 29 39.5 46.5t58.5 17.5q41 0 76 -32.5t35 -74.5q0 -23 -6 -37q-29 -69 -175 -418.5t-175 -418.5h331v356q0 44 32 74t79 30q45 0 78 -30t33 -74v-356h57q44 0 75 -30.5t31 -72.5q0 -43 -31 -72.5t-75 -29.5h-57v-207q0 -44 -32.5 -74 t-78.5 -30q-47 0 -79 30t-32 74v207h-481q-50 0 -82.5 33.5t-32.5 79.5z" />
<glyph unicode="5" d="M96 156q0 42 31 72t76 30q26 0 66 -19.5t94 -39t114 -19.5q74 0 128 24t83.5 65.5t43 89.5t13.5 104q0 128 -63 194t-164 66q-67 0 -131 -33q-4 -2 -29 -19.5t-50.5 -29.5t-49.5 -12q-50 0 -81.5 31.5t-31.5 82.5l21 588q1 52 38.5 83.5t86.5 31.5h493q48 0 86.5 -26 t38.5 -79q0 -51 -37 -75.5t-88 -24.5h-413q-6 -175 -15 -354q67 33 166 33q200 0 323.5 -120.5t123.5 -328.5q0 -91 -26.5 -175t-78 -155t-139.5 -114t-201 -43q-35 0 -80 3t-109 14.5t-115 29t-87.5 50.5t-36.5 75z" />
<glyph unicode="6" d="M74 682q0 382 120 581t361 199q42 0 90 -5t111 -18t104 -44t41 -76q0 -37 -28.5 -65.5t-71.5 -28.5q-25 0 -96 19.5t-123 21.5q-65 0 -113.5 -22t-78.5 -58.5t-49 -93.5t-27 -116.5t-11 -137.5q104 77 250 77q91 0 169.5 -29t138.5 -84t95 -143t35 -198 q0 -100 -29 -185.5t-84.5 -152t-144 -104t-201.5 -37.5q-105 0 -184.5 34t-131 94t-84 150t-45.5 192t-13 230zM299 582q0 -67 5.5 -120.5t22 -105.5t43 -87.5t70.5 -57t103 -21.5q117 0 171 76t54 191q0 127 -60.5 190.5t-168.5 63.5q-70 0 -135.5 -26t-104.5 -67v-36z" />
<glyph unicode="7" d="M92 1339q0 44 31.5 75.5t77.5 31.5h655q47 0 82 -32.5t35 -78.5q0 -33 -10 -53l-510 -1233q-27 -67 -101 -67q-46 0 -79.5 26.5t-34.5 69.5q0 28 8 47l465 1108h-510q-43 0 -76 31t-33 75z" />
<glyph unicode="8" d="M47 403q0 225 227 359q-176 122 -176 315q0 116 59 204t156.5 133.5t216.5 45.5q184 0 308.5 -106t124.5 -271q0 -188 -177 -307q230 -137 230 -364q0 -187 -136 -309.5t-348 -122.5q-211 0 -348 119.5t-137 303.5zM270 412q0 -100 74.5 -166t187.5 -66t187 67t74 165 q0 99 -77 164.5t-190 87.5q-112 -23 -184 -89.5t-72 -162.5zM319 1077q0 -84 62 -140.5t156 -74.5q90 21 148 78t58 137q0 82 -61 135.5t-150 53.5q-91 0 -152 -53t-61 -136z" />
<glyph unicode="9" d="M74 985q0 99 27.5 184t82 151t142.5 104t200 38q105 0 185.5 -34t133 -94.5t85.5 -151t47 -195t14 -235.5q0 -770 -483 -770q-31 0 -67 2.5t-88 11t-91.5 23t-68.5 41.5t-29 63q0 37 28 65.5t72 28.5q21 0 93.5 -19.5t125.5 -19.5q65 0 113 22t78 58.5t49 93t27 116.5 t10 138q-106 -80 -248 -80q-91 0 -169 29t-139 84.5t-95.5 144t-34.5 201.5zM297 985q0 -126 60 -189t169 -63q71 0 136 25t104 67v37q0 391 -248 391q-114 0 -167.5 -76.5t-53.5 -191.5z" />
<glyph unicode=":" horiz-adv-x="512" d="M115 117q0 55 41 94t100 39q57 0 98 -39.5t41 -93.5q0 -56 -41 -96.5t-98 -40.5q-59 0 -100 40.5t-41 96.5zM115 731q0 55 41 94t100 39q57 0 98 -39.5t41 -93.5q0 -56 -41 -96.5t-98 -40.5q-59 0 -100 40.5t-41 96.5z" />
<glyph unicode=";" horiz-adv-x="512" d="M115 117q0 55 41 94t100 39q57 0 98 -39t41 -98q0 -65 -26.5 -154.5t-68.5 -157t-79 -67.5q-27 0 -46 14t-15 49q1 36 31.5 91t39.5 96q-51 8 -83.5 45t-32.5 88zM115 731q0 55 41 94t100 39q57 0 98 -39.5t41 -93.5q0 -56 -41 -96.5t-98 -40.5q-59 0 -100 40.5t-41 96.5 z" />
<glyph unicode="&#x3c;" horiz-adv-x="1320" d="M129 721q0 25 6 43t22.5 33t26 21t37.5 22l748 370q93 45 114 43q46 0 77.5 -31t31.5 -75q0 -28 -21 -55t-53 -43l-680 -328l680 -330q33 -15 53.5 -41.5t20.5 -54.5q0 -43 -30 -75t-72 -32q-29 0 -121 43l-746 371q-56 32 -71 49q-23 27 -23 70z" />
<glyph unicode="=" d="M106 721q0 43 33.5 74.5t77.5 31.5h631q42 0 76 -31.5t34 -74.5q0 -44 -32 -74.5t-78 -30.5h-631q-47 0 -79 30.5t-32 74.5zM106 727q0 43 33.5 73.5t77.5 30.5h631q43 0 76.5 -30.5t33.5 -73.5q0 -44 -32 -74t-78 -30h-631q-47 0 -79 30t-32 74z" />
<glyph unicode="&#x3e;" horiz-adv-x="1320" d="M129 295q0 28 20.5 54.5t53.5 41.5l678 330l-678 328q-33 15 -53.5 42t-20.5 56q0 43 30 75.5t74 32.5q31 0 109 -38l756 -377q32 -16 49 -28t31 -35.5t14 -55.5q0 -25 -6 -43t-24 -33t-26 -20.5t-38 -22.5l-756 -375q-27 -16 -62.5 -27.5t-50.5 -11.5q-42 0 -71 32 t-29 75z" />
<glyph unicode="?" horiz-adv-x="987" d="M66 1292q0 47 43.5 85.5t110 61t136.5 34.5t131 12q200 0 319.5 -115.5t119.5 -296.5q0 -83 -23.5 -155t-63 -126.5t-79 -97.5t-83.5 -89t-65 -81q-14 -19 -14 -71q-8 -44 -38.5 -75.5t-74.5 -31.5q-52 0 -82 37t-30 96q2 21 8 42.5t12 37.5t20.5 39.5t21 34.5t27 36.5 t26 31.5t29.5 33.5t26 29.5l43 49q36 42 58 72.5t42 80t19 97.5q0 96 -59.5 158.5t-170.5 62.5q-104 0 -178 -35q-15 -7 -40 -23.5t-44.5 -25t-40.5 -8.5q-40 0 -73 29t-33 71zM344 115q0 55 41 94t100 39q57 0 98.5 -39t41.5 -94t-41.5 -95t-98.5 -40q-58 0 -99.5 39.5 t-41.5 95.5z" />
<glyph unicode="@" horiz-adv-x="1564" d="M121 643q0 299 171.5 480.5t483.5 181.5q160 0 288.5 -50.5t210.5 -138.5t125.5 -204t43.5 -250q0 -76 -15.5 -136.5t-47.5 -107t-86.5 -71.5t-127.5 -25q-130 0 -198 84q-52 -57 -99.5 -81t-107.5 -24q-138 0 -220.5 97t-82.5 251q0 153 83 245.5t240 92.5 q66 0 116.5 -18.5t82.5 -48t54 -74.5t32.5 -89.5t17.5 -101.5q3 -27 4.5 -37t5.5 -34t9.5 -35t13.5 -25t20.5 -20t28.5 -6q80 0 80 151q0 138 -51.5 246t-159 173t-256.5 65q-222 0 -343.5 -134.5t-121.5 -357.5q0 -222 123.5 -352.5t356.5 -130.5q34 0 63 3t56.5 10 t42 11.5t44.5 16t39 14.5q106 24 136 -49q29 -84 -97 -135q-55 -24 -144 -40t-173 -16q-296 0 -468.5 184.5t-172.5 485.5zM659 639q0 -164 111 -164q62 0 131 57q-11 53 -16 123q-2 23 -3 30t-4.5 28.5t-7 30.5t-12 24.5t-18.5 22t-26 12.5t-36 6q-119 0 -119 -170z" />
<glyph unicode="A" horiz-adv-x="1165" d="M41 86q0 23 4 39l399 1214q19 59 50.5 91t87.5 32t86 -31t51 -92l399 -1214q6 -12 6 -39q0 -47 -33 -75.5t-83 -28.5q-51 0 -76 29.5t-49 94.5l-66 199h-477l-76 -246q-10 -34 -42.5 -55.5t-63.5 -21.5q-49 0 -83 29t-34 75zM403 502h355q-13 43 -46.5 149.5t-50.5 164 t-40.5 145.5t-38.5 163q-23 -97 -51.5 -197t-70 -235t-57.5 -190z" />
<glyph unicode="B" horiz-adv-x="1150" d="M139 123v1198q0 52 38 87.5t91 35.5h346q104 0 187.5 -32.5t135.5 -87.5t79.5 -123.5t27.5 -143.5q0 -77 -32.5 -138t-82.5 -99.5t-124 -71.5q45 -16 80 -32.5t74 -44.5t64.5 -61t42.5 -82t17 -108q0 -181 -130 -300.5t-347 -119.5h-338q-55 0 -92 36t-37 87zM365 209 h239q124 0 189 56.5t65 154.5q0 104 -70.5 163.5t-181.5 59.5h-241v-434zM365 854h235q85 0 152 52.5t67 148.5q0 79 -46.5 129.5t-147.5 50.5h-260v-381z" />
<glyph unicode="C" horiz-adv-x="1028" d="M82 512v422q0 248 122.5 388t368.5 140q153 0 273.5 -59t120.5 -137q0 -40 -30.5 -69.5t-74.5 -29.5q-14 0 -25.5 3t-17.5 6t-19 11.5t-20 12.5l-10 6q-82 58 -186 58q-150 0 -213.5 -84.5t-63.5 -245.5v-422q0 -161 63.5 -245.5t213.5 -84.5q103 0 186 56l10 6 q6 3 19.5 12t19 11.5t17.5 5.5t26 3q44 0 74.5 -28.5t30.5 -67.5q0 -80 -120 -138t-274 -58q-246 0 -368.5 140t-122.5 388z" />
<glyph unicode="D" horiz-adv-x="1175" d="M139 123v1200q0 50 38.5 86.5t90.5 36.5h232q128 0 230 -28.5t169 -77.5t111 -117.5t63 -144.5t19 -163v-368q0 -89 -18.5 -166.5t-63 -148.5t-111 -121.5t-168.5 -80.5t-231 -30h-232q-53 0 -91 36t-38 87zM365 209h170q90 0 156 26t103 73.5t54.5 106.5t17.5 132v368 q0 69 -18 125.5t-55.5 101t-103 69t-154.5 24.5h-170v-1026z" />
<glyph unicode="E" horiz-adv-x="1011" d="M139 121v1202q0 46 36.5 83.5t90.5 37.5h555q46 0 79.5 -32.5t33.5 -76.5t-33 -73t-80 -29h-456v-404h417q43 0 77 -30.5t34 -73.5q0 -44 -32.5 -75.5t-78.5 -31.5h-417v-409h477q45 0 78.5 -29.5t33.5 -70.5q0 -45 -33 -77t-79 -32h-543q-71 0 -115.5 28.5t-44.5 92.5z " />
<glyph unicode="F" horiz-adv-x="1011" d="M139 86v1237q0 46 36.5 83.5t90.5 37.5h555q46 0 79.5 -32t33.5 -75q0 -44 -33 -73t-80 -29h-456v-406h417q43 0 77 -30.5t34 -73.5q0 -44 -32.5 -75.5t-78.5 -31.5h-417v-532q0 -42 -34 -74t-79 -32q-47 0 -80 32t-33 74z" />
<glyph unicode="G" horiz-adv-x="1105" d="M82 512v422q0 248 122.5 388t368.5 140q153 0 273.5 -59t120.5 -137q0 -40 -30.5 -69.5t-74.5 -29.5q-14 0 -25.5 3t-17.5 6t-19 11.5t-20 12.5l-10 6q-86 58 -186 58q-150 0 -213.5 -84.5t-63.5 -245.5v-422q0 -161 63.5 -245.5t213.5 -84.5q111 0 200 60v379h-153 q-40 0 -71.5 31t-31.5 73t31 72t72 30h233q61 0 102.5 -30.5t41.5 -87.5v-471q0 -64 -39.5 -114.5t-104.5 -80t-139.5 -44.5t-151.5 -15q-246 0 -368.5 140t-122.5 388z" />
<glyph unicode="H" horiz-adv-x="1228" d="M139 88v1268q0 43 33 74.5t80 31.5q46 0 79.5 -31.5t33.5 -74.5v-529h497v529q0 42 34 74t79 32q44 0 78 -31.5t34 -74.5v-1268q0 -43 -33.5 -75.5t-78.5 -32.5q-44 0 -78.5 32.5t-34.5 75.5v528h-497v-528q0 -43 -33.5 -75.5t-79.5 -32.5q-47 0 -80 32.5t-33 75.5z" />
<glyph unicode="I" horiz-adv-x="505" d="M139 86v1270q0 43 33 74.5t80 31.5q46 0 79.5 -31.5t33.5 -74.5v-1270q0 -42 -34 -74t-79 -32q-47 0 -80 32t-33 74z" />
<glyph unicode="J" horiz-adv-x="829" d="M41 96q0 48 32 76.5t70 28.5q15 0 54.5 -6.5t70.5 -6.5q114 0 155.5 70t41.5 213v885q0 45 32 75.5t81 30.5q44 0 78 -31.5t34 -74.5v-885q0 -119 -22 -206t-72 -153t-137.5 -99t-212.5 -33q-205 0 -205 116z" />
<glyph unicode="K" horiz-adv-x="1079" d="M139 88v1268q0 43 33 74.5t80 31.5q46 0 79.5 -31.5t33.5 -74.5v-492l460 549q16 20 42.5 34.5t54.5 14.5q37 0 71.5 -30t34.5 -74q0 -38 -27 -72l-423 -500q51 -71 145 -201t171 -236.5t146 -201.5q17 -24 17 -55q0 -42 -29 -76t-80 -34q-61 0 -94 47l-420 589l-69 -83 v-447q0 -43 -33.5 -74.5t-79.5 -31.5q-47 0 -80 31.5t-33 74.5z" />
<glyph unicode="L" horiz-adv-x="972" d="M139 117v1239q0 43 33 74.5t80 31.5q46 0 79.5 -31.5t33.5 -74.5v-1149h475q43 0 75.5 -30.5t32.5 -72.5q0 -44 -31.5 -74t-76.5 -30h-578q-50 0 -86.5 34t-36.5 83z" />
<glyph unicode="M" horiz-adv-x="1492" d="M131 84v1268q0 47 33 78.5t84 31.5q79 0 114 -65l383 -791l381 793q34 63 115 63q49 0 83 -32t34 -78v-1268q0 -41 -33.5 -72.5t-77.5 -31.5q-46 0 -80 31.5t-34 72.5v852l-283 -582q-29 -63 -107 -63q-72 0 -106 63l-281 582v-852q0 -42 -34.5 -73t-81.5 -31 q-45 0 -77 31t-32 73z" />
<glyph unicode="N" horiz-adv-x="1269" d="M139 88v1260q0 50 33.5 82t85.5 32q34 0 65 -16.5t48 -44.5q42 -75 262.5 -475t269.5 -486v914q0 44 34.5 76t80.5 32t78 -32t32 -76v-1260q0 -47 -33.5 -80.5t-86.5 -33.5q-33 0 -64.5 16.5t-46.5 42.5l-532 960v-911q0 -43 -34.5 -75.5t-80.5 -32.5t-78.5 32t-32.5 76z " />
<glyph unicode="O" horiz-adv-x="1187" d="M92 512v422q0 111 28.5 204t87 167t157 115.5t229.5 41.5t229.5 -41.5t157 -115.5t87 -167t28.5 -204v-422q0 -112 -32 -208t-93 -168.5t-158 -114t-219 -41.5t-219 41.5t-158 114t-93 168.5t-32 208zM317 512q0 -148 69.5 -235t207.5 -87q137 0 206.5 87t69.5 235v422 q0 319 -276 319q-277 0 -277 -319v-422z" />
<glyph unicode="P" horiz-adv-x="1126" d="M139 90v1231q0 50 38.5 86.5t90.5 36.5h301q105 0 189.5 -25.5t140.5 -69t93 -104t53 -127.5t16 -143q0 -220 -132.5 -341.5t-359.5 -121.5h-204v-422q0 -43 -34 -76.5t-79 -33.5t-79 33t-34 77zM365 721h204q267 0 267 256t-267 256h-204v-512z" />
<glyph unicode="Q" horiz-adv-x="1187" d="M92 512v422q0 111 28.5 204t87 167t157 115.5t229.5 41.5t229.5 -41.5t157 -115.5t87 -167t28.5 -204v-422q0 -201 -98.5 -342.5t-282.5 -175.5q7 -82 38.5 -118t88.5 -36h59q50 0 80.5 -26.5t30.5 -73.5q0 -28 -11 -47t-25.5 -29t-44 -15t-52 -6t-64.5 -1 q-135 0 -218.5 93t-102.5 253q-130 21 -222 96t-136 184.5t-44 243.5zM317 512q0 -148 69.5 -235t207.5 -87q137 0 206.5 87t69.5 235v422q0 319 -276 319q-277 0 -277 -319v-422z" />
<glyph unicode="R" horiz-adv-x="1218" d="M139 90v1231q0 50 37 86.5t88 36.5h357q104 0 187 -24t136.5 -64t89 -95.5t50 -114t14.5 -124.5q0 -155 -80 -255t-221 -136q50 -81 151.5 -240.5t151.5 -240.5q7 -7 11.5 -26t4.5 -30q0 -45 -37 -77.5t-80 -32.5q-64 0 -94 49l-354 577h-186v-520q0 -43 -34.5 -75.5 t-80.5 -32.5q-45 0 -78 32t-33 76zM365 817h260q120 0 183.5 52.5t63.5 152.5q0 42 -11.5 76.5t-39 66.5t-80.5 50t-129 18h-247v-416z" />
<glyph unicode="S" horiz-adv-x="1036" d="M74 154q0 41 30.5 72.5t73.5 31.5q23 0 65.5 -17t105.5 -34t134 -17q120 0 182 55.5t62 157.5q0 122 -100 175q-37 18 -94 37.5t-104.5 35t-103 38t-97.5 52.5t-77.5 71.5t-55 102t-19.5 136.5q0 191 119.5 301t324.5 110q51 0 108 -7t122.5 -23t108 -50.5t42.5 -81.5 q0 -42 -31 -72t-82 -30q-28 0 -104.5 27.5t-151.5 27.5q-47 0 -85 -9.5t-71 -30t-51 -59.5t-18 -93q0 -122 103 -172q43 -22 112 -46.5t124 -42t116.5 -50t102.5 -72t68.5 -106.5t27.5 -154q0 -204 -134 -320t-346 -116q-58 0 -124 9.5t-131.5 28.5t-108.5 54t-43 80z" />
<glyph unicode="T" horiz-adv-x="1030" d="M41 1337q0 37 34 72t79 35h720q44 0 79.5 -32t35.5 -75q0 -41 -34.5 -72.5t-80.5 -31.5h-247v-1147q0 -42 -34 -74t-79 -32q-47 0 -80 32t-33 74v1147h-247q-48 0 -80.5 31t-32.5 73z" />
<glyph unicode="U" horiz-adv-x="1212" d="M123 481v871q0 47 33 78.5t82 31.5q45 0 77.5 -32.5t32.5 -77.5v-871q0 -134 65 -212.5t193 -78.5q126 0 191 79t65 212v871q0 45 32 77.5t79 32.5q49 0 83 -32.5t34 -77.5v-871q0 -222 -130.5 -361.5t-353.5 -139.5q-152 0 -262.5 65.5t-165.5 177.5t-55 258z" />
<glyph unicode="V" horiz-adv-x="1138" d="M27 1356q0 46 34 76t82 30q31 0 63.5 -22t43.5 -56q21 -66 81.5 -256t89.5 -285t72.5 -246.5t73.5 -277.5q41 179 62 242l256 823q10 34 42.5 56t65.5 22q51 0 84 -29.5t33 -76.5q0 -21 -4 -37l-399 -1215q-21 -61 -52.5 -91.5t-87.5 -30.5q-55 0 -85.5 31t-49.5 91 l-399 1215q-6 12 -6 37z" />
<glyph unicode="W" horiz-adv-x="1644" d="M27 1358q0 43 38.5 70.5t84.5 27.5q36 0 65 -20.5t39 -59.5q53 -228 139 -575q19 -76 46.5 -218t37.5 -186q12 56 40.5 204t47.5 226l121 500q17 71 44.5 103t90.5 32q60 0 89 -33.5t46 -101.5l119 -500q16 -72 43.5 -216t44.5 -216q5 25 36 175.5t50 230.5l137 573 q10 38 37.5 60t63.5 22q49 0 89 -26t40 -74q0 -13 -4 -25l-305 -1229q-15 -53 -49.5 -86.5t-90.5 -33.5t-91.5 35t-47.5 87l-121 508q-20 82 -51 242.5t-35 179.5q-61 -305 -207 -934q-34 -118 -139 -118q-51 0 -89.5 35.5t-49.5 84.5q-151 594 -309 1256z" />
<glyph unicode="X" horiz-adv-x="1079" d="M27 88q0 33 16 57q45 74 170 282.5t195 322.5l-334 550q-15 30 -15 58q0 40 32.5 72t74.5 32q67 0 115 -82l258 -446l258 446q18 31 49 56t67 26q42 0 73.5 -31t31.5 -75q0 -24 -14 -56l-332 -550l362 -605q17 -25 17 -57q0 -41 -33 -73.5t-74 -32.5q-67 0 -106 69 l-299 516q-49 -86 -299 -516q-40 -69 -105 -69q-43 0 -75.5 32.5t-32.5 73.5z" />
<glyph unicode="Y" horiz-adv-x="1030" d="M27 1354q0 43 35 75.5t79 32.5q64 0 90 -47l283 -590l283 590q26 47 90 47q45 0 79.5 -32t34.5 -76q0 -14 -10 -49l-362 -742v-473q0 -44 -33.5 -77t-81.5 -33q-47 0 -81 33t-34 77v475l-362 740q-10 30 -10 49z" />
<glyph unicode="Z" horiz-adv-x="1032" d="M49 115q0 33 25 78q54 89 307 525.5t297 510.5h-514q-47 0 -79 31t-32 75t32.5 76.5t78.5 32.5h694q50 0 84.5 -33.5t34.5 -79.5q0 -34 -25 -76l-610 -1042h526q45 0 79 -30.5t34 -73.5q0 -45 -33.5 -77t-79.5 -32h-702q-50 0 -83.5 33.5t-33.5 81.5z" />
<glyph unicode="[" horiz-adv-x="643" d="M147 -135v1665q0 53 38.5 77.5t99.5 24.5h209q39 0 72.5 -30.5t33.5 -69.5q0 -55 -39 -80t-94 -25h-96v-1462h96q59 0 96 -23.5t37 -76.5q0 -55 -40 -80t-95 -25h-209q-43 0 -76 32t-33 73z" />
<glyph unicode="\" horiz-adv-x="655" d="M-51 1444q0 43 30 75.5t74 32.5q35 0 64 -18t39 -51l22 -68l510 -1386q2 -8 2 -21q0 -39 -32 -68.5t-74 -29.5q-34 0 -62.5 19t-40.5 51q-176 477 -524 1431q-8 11 -8 33z" />
<glyph unicode="]" horiz-adv-x="643" d="M39 -135q0 100 135 100h96v1462h-96q-56 0 -95.5 24.5t-39.5 80.5q0 52 40 76t97 24h209q40 0 74.5 -32t34.5 -70v-1665q0 -43 -32.5 -74t-76.5 -31h-209q-57 0 -97 25t-40 80z" />
<glyph unicode="^" horiz-adv-x="708" d="M-6 1081q3 45 45 90l227 267q30 41 86 41q53 0 86 -41q19 -20 113.5 -133t112.5 -134q44 -47 47 -90q0 -38 -25.5 -61t-67.5 -23q-23 0 -44.5 11t-32.5 26q-12 15 -90.5 110.5t-98.5 117.5l-190 -228q-11 -15 -33 -26t-43 -11q-41 0 -66.5 23t-25.5 61z" />
<glyph unicode="_" horiz-adv-x="1269" d="M-80 -367q0 44 34 75.5t77 31.5h1208q42 0 76.5 -32t34.5 -75q0 -44 -32.5 -74t-78.5 -30h-1208q-47 0 -79 30t-32 74z" />
<glyph unicode="`" horiz-adv-x="444" d="M80 1415q0 35 25.5 59.5t56.5 24.5q24 0 37 -7t30 -24l21 -20q12 -12 40 -38.5t48 -46t42 -43.5t34 -43.5t12 -33.5q0 -37 -25.5 -61.5t-60.5 -24.5q-42 0 -80 41l-154 160q-26 26 -26 57z" />
<glyph unicode="a" horiz-adv-x="1028" d="M82 301v6q0 309 383 309q95 0 184 -24v90q0 180 -188 180q-56 0 -121 -26l-39 -17q-20 -10 -53 -10q-41 0 -62.5 27t-21.5 63q0 76 92 114t225 38q203 0 296 -104.5t93 -313.5v-416q0 -35 12.5 -47.5t39.5 -17.5q61 -11 61 -74q0 -86 -121 -86q-107 0 -164 92 q-113 -98 -278 -98q-164 0 -251 84.5t-87 230.5zM301 299q0 -64 36 -96.5t118 -32.5q105 0 194 72v184q-97 23 -178 23q-99 0 -134.5 -38t-35.5 -106v-6z" />
<glyph unicode="b" horiz-adv-x="1044" d="M141 317v1063q0 42 29.5 71.5t81.5 29.5q50 0 80 -29.5t30 -71.5v-399q109 70 248 70q175 0 258.5 -90t83.5 -240v-365q0 -164 -105 -268t-300 -104q-188 0 -297 94.5t-109 238.5zM362 317q0 -69 49.5 -109t135.5 -40q92 0 138 46.5t46 131.5v381q0 147 -170 147 q-123 0 -199 -79v-478z" />
<glyph unicode="c" horiz-adv-x="856" d="M92 369v293q0 82 23.5 150.5t70.5 121t124 81.5t177 29q47 0 96.5 -7t102 -22t86 -47t33.5 -75q0 -36 -24.5 -61t-73.5 -25q-25 0 -52 8q-3 1 -18.5 8t-20 9t-18 7.5t-21.5 7t-20.5 4.5t-25.5 4t-27 1q-100 0 -145.5 -49.5t-45.5 -144.5v-293q0 -197 191 -197q14 0 27 1 t25.5 4t20.5 4.5t21.5 7t18 7.5t20 9t18.5 8q27 10 50 10q50 0 75 -26t25 -62q0 -43 -33.5 -74.5t-86 -47t-102.5 -22.5t-98 -7q-195 0 -294 107t-99 278z" />
<glyph unicode="d" horiz-adv-x="1050" d="M92 379v246q0 95 18.5 168.5t60 131t113.5 87.5t173 30q108 0 205 -38v376q0 43 29 72t81 29q51 0 81 -29t30 -72v-1132q0 -32 10 -53t35 -43q22 -25 22 -56q0 -45 -31 -71.5t-71 -26.5q-68 0 -117 72q-159 -86 -289 -86q-167 0 -258.5 107t-91.5 288zM313 379 q0 -205 166 -205q82 0 187 51q-4 16 -4 43v553q-92 35 -179 35q-92 0 -131 -55t-39 -176v-246z" />
<glyph unicode="e" horiz-adv-x="942" d="M92 334v362q0 156 107 255.5t299 99.5q182 0 276 -91t94 -249q0 -308 -372 -308q-84 0 -183 15v-94q0 -71 49 -111.5t144 -40.5q87 0 199 51q15 10 45 11q48 0 74 -29t26 -64q0 -43 -38.5 -76t-98.5 -49.5t-117 -24t-109 -7.5q-184 0 -289.5 98t-105.5 252zM313 588 q114 -13 181 -13q84 0 119.5 36.5t35.5 105.5q0 80 -39 115.5t-116 35.5q-86 0 -133.5 -42.5t-47.5 -116.5v-121z" />
<glyph unicode="f" horiz-adv-x="714" d="M141 90v1000q0 96 30 171t83 121.5t122.5 71.5t151.5 27q18 1 40 0t55.5 -7t59.5 -17t45.5 -35t19.5 -56q0 -44 -32 -71t-77 -27q-17 0 -57.5 6t-65.5 6q-75 0 -114.5 -50t-39.5 -126v-113h183q43 0 73.5 -29t30.5 -71q0 -41 -30.5 -69.5t-73.5 -28.5h-183v-703 q0 -43 -29.5 -71.5t-80.5 -28.5q-52 0 -81.5 28.5t-29.5 71.5z" />
<glyph unicode="g" horiz-adv-x="1050" d="M82 -172q0 129 119 233q-51 69 -51 164q0 86 67 158q-121 109 -121 287q0 169 101 275t286 106q142 0 273 -70q35 57 82.5 87t89.5 30q39 0 71.5 -29t32.5 -68q0 -33 -24 -57l-31 -31q-43 -43 -57 -69q-13 -23 -13 -62v-6v-121q0 -165 -104 -267.5t-301 -102.5 q-84 0 -137 18q-19 -42 -19 -72q0 -42 25.5 -59.5t58.5 -17.5h86q197 0 318.5 -78t121.5 -230q0 -156 -126 -249t-324 -93q-190 0 -307 87t-117 237zM303 -152q0 -75 52 -115t155 -40q101 0 163 38.5t62 110.5q0 123 -215 123h-43q-10 0 -121 6q-53 -53 -53 -123zM317 666 q0 -93 46.5 -145t142.5 -52q90 0 135 47.5t45 134.5v66q0 67 2 100q-93 49 -176 49q-96 0 -145.5 -51.5t-49.5 -148.5z" />
<glyph unicode="h" horiz-adv-x="1079" d="M141 88v1301q0 41 31.5 72.5t77.5 31.5t78 -30t32 -74v-408q103 70 226 70q174 0 262 -94.5t88 -254.5v-614q0 -43 -33 -72.5t-78 -29.5q-47 0 -78.5 29t-31.5 73v623q0 74 -37.5 113.5t-110.5 39.5q-57 0 -113 -23.5t-94 -68.5v-684q0 -44 -31 -73t-77 -29q-47 0 -79 29 t-32 73z" />
<glyph unicode="i" horiz-adv-x="542" d="M141 1343q0 51 37 86t92 35q54 0 91.5 -35.5t37.5 -85.5q-2 -51 -38.5 -85.5t-90.5 -34.5q-55 0 -92 35t-37 85zM160 88v854q0 42 31.5 72t78.5 30q46 0 78.5 -30.5t32.5 -71.5v-854q0 -44 -32.5 -73t-78.5 -29q-47 0 -78.5 29t-31.5 73z" />
<glyph unicode="j" horiz-adv-x="542" d="M-78 -315q0 37 27 60t61 30q73 14 111.5 60t38.5 136v971q0 42 31.5 72t78.5 30q46 0 78.5 -30.5t32.5 -71.5v-965q0 -173 -96.5 -282t-261.5 -109q-44 0 -72.5 28.5t-28.5 70.5zM141 1343q0 51 37 86t92 35q54 0 91.5 -35.5t37.5 -85.5q0 -51 -37.5 -85.5t-91.5 -34.5 q-55 0 -92 35t-37 85z" />
<glyph unicode="k" horiz-adv-x="948" d="M141 88v1239q0 154 111 154q46 0 78 -30t32 -73v-706l295 313q53 57 105 57q45 0 75.5 -27.5t30.5 -68.5t-28 -69l-277 -287q243 -339 324 -455q18 -24 18 -61q-3 -40 -32.5 -64t-73.5 -24t-63 16t-56 70l-270 389q-8 -7 -24 -23.5t-24 -23.5v-281q0 -147 -110 -147 q-47 0 -79 29t-32 73z" />
<glyph unicode="l" horiz-adv-x="507" d="M141 209v1169q0 42 32 72.5t79 30.5q46 0 78 -30t32 -73v-1157q0 -35 5 -52t24 -38q27 -27 27 -55q0 -43 -31 -67.5t-84 -24.5q-162 0 -162 225z" />
<glyph unicode="m" horiz-adv-x="1634" d="M96 920q0 42 30.5 69t74.5 27q56 0 94 -55q145 90 289 90q140 0 237 -97q156 97 303 97q171 0 269 -97.5t98 -259.5v-606q0 -45 -29 -73.5t-82 -28.5t-81.5 28.5t-28.5 73.5v602q0 72 -41 119t-113 47q-104 0 -194 -90q8 -46 8 -72v-606q0 -45 -29 -73.5t-82 -28.5 t-81.5 28.5t-28.5 73.5v561q0 50 -5.5 84.5t-20 64t-43 44t-71.5 14.5q-96 0 -204 -68q4 -28 4 -43v-657q0 -45 -29 -73.5t-82 -28.5t-82 28.5t-29 73.5v657q0 26 -1 44t-5 30t-5.5 17t-7.5 13.5t-7 10.5q-25 39 -25 60z" />
<glyph unicode="n" horiz-adv-x="1083" d="M96 922q0 40 30.5 67t76.5 27q55 0 96 -60q133 91 283 91q174 0 265 -106t91 -288v-565q0 -44 -30 -73t-81 -29q-52 0 -81 28.5t-29 73.5v565q0 97 -43 151t-119 54q-89 0 -193 -63q7 -32 7 -50v-657q0 -45 -29 -73.5t-82 -28.5t-82 28.5t-29 73.5v657q0 26 -1 44t-5 30 t-5.5 17t-7.5 13.5t-7 10.5q-25 39 -25 62z" />
<glyph unicode="o" horiz-adv-x="1011" d="M92 356v324q0 164 109 268.5t305 104.5t305 -104.5t109 -268.5v-324q0 -163 -109 -267.5t-305 -104.5t-305 104.5t-109 267.5zM313 356q0 -84 49.5 -131t143.5 -47t143 46.5t49 131.5v326q0 83 -49 129.5t-143 46.5t-143.5 -46.5t-49.5 -129.5v-326z" />
<glyph unicode="p" horiz-adv-x="1030" d="M98 915q0 42 32 70.5t71 28.5q54 0 94 -53q160 90 293 90q166 0 258 -108t92 -286v-251q0 -420 -367 -420q-104 0 -202 41v-363q0 -44 -30 -73t-81 -29q-52 0 -81.5 29.5t-29.5 72.5v1079q0 76 -28 119q-21 28 -21 53zM360 805q9 -52 9 -62v-536q88 -35 178 -35 q92 0 131 56t39 178v251q0 203 -166 203q-84 0 -191 -55z" />
<glyph unicode="q" horiz-adv-x="1044" d="M92 367v305q0 168 105 273.5t301 105.5q187 0 296 -96.5t109 -243.5v-1026q0 -45 -28.5 -74t-81.5 -29t-82 29t-29 74v366q-103 -65 -236 -65q-354 0 -354 381zM313 367q0 -195 172 -195q117 0 197 74v465q0 68 -49.5 106.5t-134.5 38.5q-93 0 -139 -48t-46 -136v-305z " />
<glyph unicode="r" horiz-adv-x="731" d="M98 918q0 42 31.5 69t75.5 27q51 0 94 -60q68 41 140.5 64.5t127.5 23.5q138 0 138 -100q0 -48 -33 -78q-30 -27 -71 -26h-9h-41.5h-36.5q-34 -1 -71 -12t-78 -35q4 -36 4 -48v-655q0 -44 -32.5 -74t-78.5 -30q-47 0 -79 30t-32 74v655q0 76 -28 119q-21 28 -21 56z" />
<glyph unicode="s" horiz-adv-x="872" d="M86 121q0 12 3.5 26.5t11 30.5t21 27t33 16.5t46.5 -2.5q9 -2 48 -15t82 -22.5t81 -9.5q71 0 117 32.5t46 86.5q0 39 -26.5 66.5t-68.5 44.5t-93 33.5t-101.5 39t-92.5 54t-68.5 86t-26.5 128.5q0 142 93.5 225t269.5 83q50 0 98 -7t94 -23t74.5 -47t28.5 -73 q0 -40 -24.5 -62t-65.5 -22q-28 0 -86.5 22.5t-118.5 22.5q-146 0 -146 -98q0 -40 26.5 -69.5t68.5 -48t93 -35.5t102 -41t93 -56.5t68.5 -88t26.5 -130.5q0 -145 -96.5 -227t-276.5 -82q-50 0 -102.5 6t-107.5 20t-89.5 42.5t-34.5 66.5z" />
<glyph unicode="t" horiz-adv-x="698" d="M141 420v825q0 45 29.5 74t81.5 29q51 0 80.5 -30t29.5 -73v-254h183q43 0 73.5 -29t30.5 -71q0 -41 -30.5 -69.5t-73.5 -28.5h-183v-359q0 -143 26 -194.5t114 -51.5q8 0 21 1t16 1q69 0 103 -21t34 -71q0 -34 -12.5 -56t-37 -32.5t-49 -14t-59.5 -3.5 q-111 0 -185.5 26.5t-116 83t-58.5 132t-17 186.5z" />
<glyph unicode="u" horiz-adv-x="1083" d="M141 379v565q0 44 29.5 72t81.5 28q51 0 80.5 -28t29.5 -72v-565q0 -99 40.5 -152t119.5 -53q89 0 193 55q-4 36 -4 50v665q0 45 28 72.5t82 27.5t82.5 -27.5t28.5 -72.5v-686q0 -26 4 -45t5.5 -24t14 -21.5t13.5 -17.5q22 -26 22 -56q0 -43 -31.5 -70.5t-72.5 -27.5 q-61 0 -107 70q-128 -82 -286 -82q-170 0 -261.5 107t-91.5 288z" />
<glyph unicode="v" horiz-adv-x="921" d="M41 950q0 40 34 68.5t77 28.5q32 0 62 -20t40 -52q49 -160 115 -365q21 -70 53.5 -198.5t42.5 -163.5q11 42 28 114.5t32.5 133t31.5 114.5q74 242 113 365q9 30 39 49.5t63 19.5q44 0 75.5 -28t31.5 -70v-12l-21 -80q-51 -143 -140 -406t-120 -354q-20 -58 -51 -83 t-82 -25q-55 0 -84.5 24t-50.5 82q-50 148 -145.5 424t-118.5 342l-23 80q0 2 -1 6t-1 6z" />
<glyph unicode="w" horiz-adv-x="1382" d="M41 946q0 39 32.5 68.5t78.5 29.5q35 0 64 -19.5t38 -53.5l100 -385q12 -47 22 -98.5t22 -120.5t18 -99q9 42 33.5 170t42.5 197l79 321q9 39 42 63.5t81 24.5q46 0 77 -24.5t40 -63.5l80 -321q15 -62 39.5 -184.5t38.5 -182.5q6 33 17.5 100t21.5 119.5t22 98.5l98 385 q7 30 39 51.5t66 21.5q44 0 76 -29.5t32 -72.5q0 -1 -1 -7.5t-1 -8.5l-237 -836q-16 -55 -45 -79.5t-86 -24.5q-44 0 -80 22.5t-45 61.5l-154 649q-103 -461 -153 -649q-22 -84 -125 -84q-105 0 -133 106l-238 834q-2 8 -2 20z" />
<glyph unicode="x" horiz-adv-x="923" d="M41 88q0 27 14 47l277 389l-256 367q-19 30 -19 49q0 42 32 73t79 31q22 0 39.5 -6t32.5 -20t22.5 -23t20.5 -28l182 -265l188 281q41 61 103 61q40 0 74 -29t34 -69q0 -32 -16 -53l-256 -367l274 -387q17 -23 17 -49q0 -44 -31.5 -75t-81.5 -31q-36 0 -57.5 14.5 t-46.5 50.5l-205 301l-217 -315q-36 -51 -90 -51q-48 0 -80.5 29.5t-32.5 74.5z" />
<glyph unicode="y" horiz-adv-x="907" d="M33 948q0 41 31.5 68.5t78.5 27.5q33 0 61.5 -18t39.5 -51l18 -55q132 -392 207 -623q95 356 195 678q10 33 40 51t64 18q43 0 77 -29t34 -73q0 -14 -7 -31l-249 -770q-28 -88 -44 -134.5t-44 -116t-50.5 -106t-58 -81.5t-73.5 -66.5t-89 -37t-112 -15.5q-49 0 -81 29 t-32 72q0 39 28 68t76 32q79 0 125.5 56t91.5 190l-321 876q-6 14 -6 41z" />
<glyph unicode="z" horiz-adv-x="837" d="M25 109q0 34 20 63l475 668h-370q-43 0 -74 28t-31 68q0 42 31 70t74 28h542q48 0 81.5 -28t33.5 -76q0 -39 -23 -72l-475 -663h396q45 0 75.5 -28.5t30.5 -70.5q0 -40 -30.5 -68t-75.5 -28h-568q-45 0 -78.5 32t-33.5 77z" />
<glyph unicode="{" horiz-adv-x="874" d="M53 496q0 94 101 98q63 3 94 35.5t37 115.5q19 335 22 371q7 124 104.5 196t250.5 72q24 0 42.5 -2t39.5 -9t35 -19t23 -33.5t9 -50.5q0 -35 -12.5 -56t-30.5 -26t-39 -6.5t-39 2.5q-32 4 -53 4q-44 0 -78 -26.5t-35 -71.5q-1 -6 -8.5 -161t-9.5 -175q-13 -180 -172 -258 q163 -82 172 -260l18 -336q1 -43 35.5 -71t75.5 -28q5 0 27.5 2t27.5 2q17 4 38 2t39.5 -7t31 -25.5t12.5 -55.5q0 -36 -13 -60t-36 -35t-46.5 -15t-53.5 -4q-150 0 -249 73t-106 195l-22 373q-6 83 -40 116t-91 33q-101 4 -101 101z" />
<glyph unicode="|" horiz-adv-x="505" d="M147 -373v1823q0 40 30.5 70t74.5 30q42 0 73 -30t31 -70v-1823q0 -40 -31 -70t-73 -30q-44 0 -74.5 30t-30.5 70z" />
<glyph unicode="}" horiz-adv-x="874" d="M68 -279q0 32 10.5 51.5t27.5 26t38.5 8.5t43.5 0q16 -4 54 -4q47 0 79 27t33 70l19 336q9 180 170 260q-78 38 -121.5 105t-48.5 153q-4 59 -8.5 141.5t-7 136t-3.5 58.5q-3 45 -35.5 71.5t-76.5 26.5q-22 0 -54 -4q-18 -4 -39 -2.5t-39 6.5t-30 26t-12 56q0 29 9 50.5 t23 33.5t35 19t39.5 9t42.5 2q153 0 250 -72t104 -196q9 -128 15.5 -239.5t7.5 -131.5q6 -83 37 -115.5t94 -35.5q100 -4 100 -98q0 -97 -100 -101q-61 -2 -93 -34.5t-38 -114.5l-23 -373q-7 -121 -105.5 -194.5t-248.5 -73.5q-30 0 -53.5 4t-46.5 15.5t-36 36t-13 60.5z " />
<glyph unicode="~" horiz-adv-x="972" d="M125 643q0 75 62.5 126.5t146.5 51.5q52 0 100 -21t88.5 -43t71.5 -24q28 0 50 12t33.5 26.5t30.5 27.5t42 14q39 0 68.5 -29t29.5 -71q0 -66 -69 -114t-144 -50q-50 0 -98.5 20t-89.5 42.5t-70 25.5q-28 2 -50 -9.5t-34.5 -27t-32.5 -28.5t-43 -13q-34 0 -61.5 23.5 t-30.5 60.5z" />
<glyph unicode="&#xa1;" horiz-adv-x="505" d="M115 905q0 56 41 96.5t100 40.5q57 0 98 -40.5t41 -96.5q0 -54 -41 -93.5t-98 -39.5q-59 0 -100 39t-41 94zM139 -334l21 916q0 37 26.5 63.5t65.5 26.5q35 0 63 -26.5t29 -63.5l21 -916q0 -42 -34 -74t-79 -32q-47 0 -80 32t-33 74z" />
<glyph unicode="&#xa2;" horiz-adv-x="964" d="M119 430v191q0 161 88.5 265t263.5 115v91q0 22 15 37.5t38 15.5t38.5 -15.5t15.5 -37.5v-91q45 -5 84.5 -15t76.5 -27.5t58.5 -46.5t21.5 -66q0 -33 -25.5 -56.5t-70.5 -23.5q-22 0 -49 8l-21 10q-49 20 -75 25v-571q24 4 70.5 25.5t72.5 21.5q46 0 72 -25t26 -57 q0 -50 -40 -85t-90.5 -49.5t-110.5 -19.5v-106q0 -22 -15.5 -38t-38.5 -16q-22 0 -37.5 16t-15.5 38v104q-175 12 -263.5 116.5t-88.5 266.5zM340 430q0 -164 131 -190v569q-131 -26 -131 -188v-191z" />
<glyph unicode="&#xa5;" horiz-adv-x="1040" d="M33 1343q0 48 31.5 82.5t80.5 34.5q41 0 62.5 -17.5t44.5 -58.5l268 -559l266 559q46 76 107 76q47 0 80 -32t33 -74q0 -10 -5 -35l-274 -563h127q31 0 55.5 -22t24.5 -54t-23 -54t-57 -22h-201l-18 -41v-74h219q32 0 56 -22t24 -53q0 -32 -23 -54t-57 -22h-219v-248 q0 -25 -18 -43.5t-44 -21.5q-3 -19 -18.5 -32t-36.5 -13q-22 0 -38 13t-19 32q-24 4 -39.5 22.5t-15.5 42.5v248h-224q-34 0 -57 22t-23 54q0 31 24 53t56 22h224v76l-21 39h-203q-34 0 -57 22t-23 54t24.5 54t55.5 22h129q-49 98 -138 279.5t-118 240.5q-11 21 -16 43z" />
<glyph unicode="&#xa8;" horiz-adv-x="866" d="M156 1298q0 45 32.5 78t79.5 33q49 0 83 -32.5t34 -78.5q0 -47 -34 -80.5t-83 -33.5q-47 0 -79.5 34t-32.5 80zM510 1298q0 44 35 77.5t82 33.5t80.5 -32.5t33.5 -78.5q0 -47 -33.5 -80.5t-80.5 -33.5t-82 34t-35 80z" />
<glyph unicode="&#xa9;" horiz-adv-x="1515" d="M131 641q0 195 71 342.5t214 232t342 84.5t341.5 -84.5t213.5 -232t71 -342.5t-71 -342.5t-213.5 -232t-341.5 -84.5t-342 84.5t-214 232t-71 342.5zM254 641q0 -242 132.5 -389.5t371.5 -147.5t371.5 147.5t132.5 389.5t-132.5 389.5t-371.5 147.5t-371.5 -147.5 t-132.5 -389.5zM473 580v125q0 134 75.5 217.5t227.5 83.5q34 0 71.5 -5.5t76.5 -17.5t64.5 -35t25.5 -53q0 -27 -19.5 -46.5t-46.5 -19.5q-1 0 -26 5q-64 38 -131 38q-160 0 -160 -167v-125q0 -84 38 -126t122 -42q10 0 20.5 1t18 2t18 4t15.5 4.5t16 6t13.5 6t15 7 t14.5 6.5q15 6 26 6q27 0 46.5 -20.5t19.5 -47.5q0 -30 -25.5 -52t-64.5 -33.5t-76.5 -17t-71.5 -5.5q-152 0 -227.5 82.5t-75.5 218.5z" />
<glyph unicode="&#xab;" horiz-adv-x="882" d="M84 524l311 469q17 28 33.5 41t42.5 13q29 0 53.5 -22.5t24.5 -53.5q0 -24 -10 -39l-269 -404l287 -426q10 -15 10 -34q0 -35 -23 -59.5t-59 -24.5q-26 0 -41.5 12t-35.5 43zM412 524l233 353q17 27 33.5 40t42.5 13q29 0 53.5 -22.5t24.5 -53.5q0 -23 -11 -39l-190 -291 l190 -291q11 -17 11 -38q0 -31 -24.5 -53.5t-53.5 -22.5q-26 0 -42.5 13t-33.5 40z" />
<glyph unicode="&#xad;" horiz-adv-x="858" d="M68 608q0 42 30.5 71.5t75.5 29.5h510q43 0 73.5 -30t30.5 -71t-30.5 -69.5t-73.5 -28.5h-510q-45 0 -75.5 28.5t-30.5 69.5z" />
<glyph unicode="&#xae;" horiz-adv-x="1433" d="M131 866q0 183 66 321t200 218t320 80t320 -80t200 -218t66 -321q0 -177 -66 -310.5t-200 -210.5t-320 -77t-320 77t-200 210.5t-66 310.5zM254 866q0 -215 121 -345t342 -130t342 130t121 345q0 224 -121 360t-342 136t-342 -136t-121 -360zM496 616v502q0 29 23.5 54.5 t53.5 25.5h148q62 0 108.5 -17.5t73 -47t39 -64.5t12.5 -74q0 -127 -108 -176l127 -192q0 -3 4 -13t4 -16q0 -18 -18 -30.5t-43 -12.5q-49 0 -74 25l-141 217h-66v-181q0 -24 -23 -42.5t-51 -18.5q-27 0 -48 17t-21 44zM639 926h94q78 0 78 69q0 72 -84 72h-88v-141z" />
<glyph unicode="&#xaf;" horiz-adv-x="866" d="M72 1296q0 37 27.5 63.5t68.5 26.5h530q38 0 66.5 -26.5t28.5 -63.5q0 -36 -28 -62t-67 -26h-530q-41 0 -68.5 25.5t-27.5 62.5z" />
<glyph unicode="&#xb0;" horiz-adv-x="802" d="M113 1180q0 125 76 205.5t212 80.5t212.5 -80.5t76.5 -205.5t-76.5 -206t-212.5 -81q-135 0 -211.5 81t-76.5 206zM258 1184q0 -156 143 -156q142 0 142 156q0 70 -35.5 108.5t-106.5 38.5q-143 0 -143 -147z" />
<glyph unicode="&#xb1;" d="M25 104q0 43 33 74t77 31h795q42 0 76 -31t34 -74q0 -44 -32 -74t-78 -30h-795q-47 0 -78.5 30t-31.5 74zM25 797q0 50 43 77t100 27h254v270q0 59 25.5 100.5t84.5 41.5q56 0 83.5 -41t27.5 -101v-270h254q47 0 95 -30t48 -74q0 -54 -41.5 -80.5t-101.5 -26.5h-254v-270 q0 -62 -27.5 -100.5t-83.5 -38.5q-46 0 -78 31.5t-32 72.5v305h-254q-60 0 -101.5 26.5t-41.5 80.5z" />
<glyph unicode="&#xb4;" horiz-adv-x="606" d="M168 1243q0 14 12 33.5t34 43.5t42 43.5t48 46t40 38.5l21 20q17 17 30 24t37 7q31 0 56.5 -24.5t25.5 -59.5q0 -30 -27 -57l-153 -160q-38 -41 -80 -41q-35 0 -60.5 24.5t-25.5 61.5z" />
<glyph unicode="&#xb7;" horiz-adv-x="563" d="M135 567q0 54 41 93.5t98 39.5q58 0 100 -39.5t42 -93.5q0 -57 -41.5 -96t-100.5 -39q-57 0 -98 39t-41 96z" />
<glyph unicode="&#xb8;" horiz-adv-x="655" d="M100 -338q0 47 60 47q18 0 54 -7t56 -7q41 0 78 16.5t37 48.5q0 28 -32.5 41.5t-71 17t-71 20.5t-32.5 50q0 1 2 17l29 160h129l-21 -140q116 -6 165.5 -53.5t49.5 -120.5q0 -82 -58 -136t-171 -54q-34 0 -67.5 5t-65 16t-51 31.5t-19.5 47.5z" />
<glyph unicode="&#xba;" horiz-adv-x="827" d="M92 991v158q0 139 83.5 226t238.5 87q154 0 237.5 -87t83.5 -226v-158q0 -138 -83.5 -224.5t-237.5 -86.5t-238 86.5t-84 224.5zM291 987q0 -129 123 -129q62 0 92.5 33.5t30.5 95.5v154q0 70 -29 105.5t-94 35.5t-94 -35.5t-29 -105.5v-154z" />
<glyph unicode="&#xbb;" horiz-adv-x="882" d="M84 195q0 23 10 38l191 291l-191 291q-10 15 -10 39q0 31 24.5 53.5t53.5 22.5q26 0 42.5 -13t33.5 -40l233 -353l-233 -352q-17 -27 -33.5 -40t-42.5 -13q-29 0 -53.5 22.5t-24.5 53.5zM315 68q0 18 11 34l286 426l-268 404q-10 15 -10 39q0 31 24.5 53.5t53.5 22.5 q26 0 42 -13t33 -41l312 -469l-324 -485q-20 -31 -36 -43t-42 -12q-36 0 -59 24.5t-23 59.5z" />
<glyph unicode="&#xbf;" horiz-adv-x="987" d="M66 -49q0 101 39 191t85.5 142.5t106.5 115.5t82 98q14 25 14 71q0 40 34.5 73.5t78.5 33.5q45 0 77.5 -35.5t32.5 -85.5q0 -39 -14.5 -79t-45.5 -83t-51.5 -67.5t-58.5 -67.5l-43 -47q-116 -130 -116 -250q0 -98 57 -159.5t170 -61.5q104 0 178 35q15 7 40.5 23.5t45 25 t39.5 8.5q42 0 75.5 -28.5t33.5 -71.5q0 -47 -43.5 -85.5t-110 -61t-137 -34.5t-131.5 -12q-200 0 -319 115.5t-119 296.5zM365 907q0 56 41.5 96.5t99.5 40.5t98.5 -40.5t40.5 -96.5q0 -54 -40.5 -93.5t-98.5 -39.5t-99.5 39.5t-41.5 93.5z" />
<glyph unicode="&#xc0;" horiz-adv-x="1165" d="M41 86q0 23 4 39l399 1214q19 59 50.5 91t87.5 32t86 -31t51 -92l399 -1214q6 -12 6 -39q0 -47 -33 -75.5t-83 -28.5q-51 0 -76 29.5t-49 94.5l-66 199h-477l-76 -246q-10 -34 -42.5 -55.5t-63.5 -21.5q-49 0 -83 29t-34 75zM334 1825q0 35 25.5 59.5t56.5 24.5 q24 0 37 -7t30 -24l21 -20q12 -12 40 -38.5t48 -46t42 -43.5t34 -43.5t12 -33.5q0 -37 -25.5 -61.5t-60.5 -24.5q-42 0 -80 41l-154 160q-26 26 -26 57zM403 502h355q-13 43 -46.5 149.5t-50.5 164t-40.5 145.5t-38.5 163q-23 -97 -51.5 -197t-70 -235t-57.5 -190z" />
<glyph unicode="&#xc1;" horiz-adv-x="1165" d="M41 86q0 23 4 39l399 1214q19 59 50.5 91t87.5 32t86 -31t51 -92l399 -1214q6 -12 6 -39q0 -47 -33 -75.5t-83 -28.5q-51 0 -76 29.5t-49 94.5l-66 199h-477l-76 -246q-10 -34 -42.5 -55.5t-63.5 -21.5q-49 0 -83 29t-34 75zM403 502h355q-13 43 -46.5 149.5t-50.5 164 t-40.5 145.5t-38.5 163q-23 -97 -51.5 -197t-70 -235t-57.5 -190zM496 1653q0 14 12 33.5t34 43.5t42 43.5t48 46t40 38.5l20 20q17 17 30.5 24t37.5 7q31 0 56.5 -24.5t25.5 -59.5q0 -31 -27 -58l-153 -159q-38 -41 -80 -41q-35 0 -60.5 24.5t-25.5 61.5z" />
<glyph unicode="&#xc2;" horiz-adv-x="1165" d="M41 86q0 23 4 39l399 1214q19 59 50.5 91t87.5 32t86 -31t51 -92l399 -1214q6 -12 6 -39q0 -47 -33 -75.5t-83 -28.5q-51 0 -76 29.5t-49 94.5l-66 199h-477l-76 -246q-10 -34 -42.5 -55.5t-63.5 -21.5q-49 0 -83 29t-34 75zM313 1631q0 42 65 94l142 112q31 23 61 23 q31 0 62 -23l141 -112q65 -52 65 -94q0 -32 -27.5 -53t-60.5 -21q-24 0 -54.5 21.5t-71.5 61t-54 50.5q-13 -11 -54 -50.5t-71.5 -61t-54.5 -21.5q-33 0 -60.5 21t-27.5 53zM403 502h355q-13 43 -46.5 149.5t-50.5 164t-40.5 145.5t-38.5 163q-23 -97 -51.5 -197t-70 -235 t-57.5 -190z" />
<glyph unicode="&#xc3;" horiz-adv-x="1165" d="M41 86q0 23 4 39l399 1214q19 59 50.5 91t87.5 32t86 -31t51 -92l399 -1214q6 -12 6 -39q0 -47 -33 -75.5t-83 -28.5q-51 0 -76 29.5t-49 94.5l-66 199h-477l-76 -246q-10 -34 -42.5 -55.5t-63.5 -21.5q-49 0 -83 29t-34 75zM281 1675q0 62 52.5 105t121.5 43 q43 0 83 -17.5t74 -36t60 -20.5q37 0 69.5 32.5t59.5 33.5q33 0 57.5 -23.5t24.5 -58.5q0 -55 -57 -95.5t-119 -42.5q-55 0 -125 36t-93 38q-29 2 -50 -14t-40 -32.5t-41 -16.5q-30 0 -53.5 19t-23.5 50zM403 502h355q-13 43 -46.5 149.5t-50.5 164t-40.5 145.5t-38.5 163 q-23 -97 -51.5 -197t-70 -235t-57.5 -190z" />
<glyph unicode="&#xc4;" horiz-adv-x="1165" d="M41 86q0 23 4 39l399 1214q19 59 50.5 91t87.5 32t86 -31t51 -92l399 -1214q6 -12 6 -39q0 -47 -33 -75.5t-83 -28.5q-51 0 -76 29.5t-49 94.5l-66 199h-477l-76 -246q-10 -34 -42.5 -55.5t-63.5 -21.5q-49 0 -83 29t-34 75zM289 1708q0 45 32.5 78t79.5 33 q49 0 83 -32.5t34 -78.5q0 -47 -34 -80.5t-83 -33.5q-47 0 -79.5 34t-32.5 80zM403 502h355q-13 43 -46.5 149.5t-50.5 164t-40.5 145.5t-38.5 163q-23 -97 -51.5 -197t-70 -235t-57.5 -190zM643 1708q0 44 35 77.5t82 33.5t80.5 -32.5t33.5 -78.5q0 -47 -33.5 -80.5 t-80.5 -33.5t-82 34t-35 80z" />
<glyph unicode="&#xc5;" horiz-adv-x="1165" d="M41 86q0 17 3 30.5t9 32t8 25.5l375 1139q-80 67 -80 170q0 93 66.5 159t161.5 66q93 0 158 -66t65 -159q0 -106 -80 -170q294 -890 391 -1188q6 -12 6 -39q0 -47 -33 -75.5t-83 -28.5q-51 0 -76 29.5t-49 94.5l-66 199h-477l-76 -246q-11 -35 -43.5 -56t-62.5 -21 q-49 0 -83 29t-34 75zM403 502h355q-13 43 -46.5 149.5t-50.5 164t-40.5 145.5t-38.5 163q-23 -97 -51.5 -197t-70 -235t-57.5 -190zM477 1483q0 -44 31.5 -75.5t75.5 -31.5q43 0 74.5 31.5t31.5 75.5t-31.5 76t-74.5 32q-44 0 -75.5 -32t-31.5 -76z" />
<glyph unicode="&#xc6;" horiz-adv-x="1529" d="M41 86q0 23 4 39l395 1194q44 125 138 125h761q46 0 79.5 -32.5t33.5 -76.5q0 -42 -33.5 -72t-79.5 -30h-385v-404h346q43 0 77 -30.5t34 -73.5q0 -44 -32.5 -75.5t-78.5 -31.5h-346v-409h406q45 0 79 -29.5t34 -70.5q0 -45 -33.5 -77t-79.5 -32h-471q-71 0 -115.5 28.5 t-44.5 92.5v184h-387l-78 -246q-10 -34 -42.5 -56.5t-63.5 -22.5q-51 0 -84 29.5t-33 76.5zM406 502h323v731h-59q-35 0 -41 -29z" />
<glyph unicode="&#xc7;" horiz-adv-x="1028" d="M82 512v422q0 248 122.5 388t368.5 140q153 0 273.5 -59t120.5 -137q0 -40 -30.5 -69.5t-74.5 -29.5q-14 0 -25.5 3t-17.5 6t-19 11.5t-20 12.5q-35 29 -88.5 46.5t-107.5 17.5q-150 0 -213.5 -84.5t-63.5 -245.5v-422q0 -161 63.5 -245.5t213.5 -84.5q56 0 110 23.5 t97 47t71 23.5q42 0 73.5 -28.5t31.5 -67.5q0 -54 -54.5 -96.5t-136 -66t-180.5 -31.5q-4 -44 -8 -60q215 -11 215 -178q0 -76 -55.5 -128t-151.5 -58q-82 0 -153.5 27t-71.5 69q0 47 55 47q12 0 60.5 -6t76.5 -6q43 0 67.5 19t24.5 46q0 29 -32 43.5t-71 17.5t-71 19 t-32 49q0 3 1 9.5t1 9.5l16 86q-193 29 -289 164.5t-96 355.5z" />
<glyph unicode="&#xc8;" horiz-adv-x="1011" d="M139 121v1202q0 46 36.5 83.5t90.5 37.5h555q46 0 79.5 -32.5t33.5 -76.5t-33 -73t-80 -29h-456v-404h417q43 0 77 -30.5t34 -73.5q0 -44 -32.5 -75.5t-78.5 -31.5h-417v-409h477q45 0 78.5 -29.5t33.5 -70.5q0 -45 -33 -77t-79 -32h-543q-71 0 -115.5 28.5t-44.5 92.5z M332 1825q0 35 25.5 59.5t56.5 24.5q24 0 37 -7t30 -24l21 -20q12 -12 40 -38.5t48 -46t42 -43.5t34 -43.5t12 -33.5q0 -37 -25.5 -61.5t-60.5 -24.5q-42 0 -80 41l-154 160q-26 26 -26 57z" />
<glyph unicode="&#xc9;" horiz-adv-x="1011" d="M139 121v1202q0 46 36.5 83.5t90.5 37.5h555q46 0 79.5 -32.5t33.5 -76.5t-33 -73t-80 -29h-456v-404h417q43 0 77 -30.5t34 -73.5q0 -44 -32.5 -75.5t-78.5 -31.5h-417v-409h477q45 0 78.5 -29.5t33.5 -70.5q0 -45 -33 -77t-79 -32h-543q-71 0 -115.5 28.5t-44.5 92.5z M440 1653q0 14 12 33.5t34 43.5t42 43.5t48 46t40 38.5l21 20q17 17 30.5 24t37.5 7q31 0 56 -24.5t25 -59.5q0 -32 -26 -58l-154 -159q-38 -41 -80 -41q-35 0 -60.5 24.5t-25.5 61.5z" />
<glyph unicode="&#xca;" horiz-adv-x="1011" d="M139 121v1202q0 46 36.5 83.5t90.5 37.5h555q46 0 79.5 -32.5t33.5 -76.5t-33 -73t-80 -29h-456v-404h417q43 0 77 -30.5t34 -73.5q0 -44 -32.5 -75.5t-78.5 -31.5h-417v-409h477q45 0 78.5 -29.5t33.5 -70.5q0 -45 -33 -77t-79 -32h-543q-71 0 -115.5 28.5t-44.5 92.5z M291 1631q0 42 65 94l142 112q31 23 61 23q31 0 62 -23l141 -112q65 -52 65 -94q0 -32 -27.5 -53t-60.5 -21q-24 0 -54.5 21.5t-71.5 61t-54 50.5q-13 -11 -54 -50.5t-71.5 -61t-54.5 -21.5q-33 0 -60.5 21t-27.5 53z" />
<glyph unicode="&#xcb;" horiz-adv-x="1011" d="M139 121v1202q0 46 36.5 83.5t90.5 37.5h555q46 0 79.5 -32.5t33.5 -76.5t-33 -73t-80 -29h-456v-404h417q43 0 77 -30.5t34 -73.5q0 -44 -32.5 -75.5t-78.5 -31.5h-417v-409h477q45 0 78.5 -29.5t33.5 -70.5q0 -45 -33 -77t-79 -32h-543q-71 0 -115.5 28.5t-44.5 92.5z M262 1708q0 45 33 78t80 33q49 0 83 -32.5t34 -78.5q0 -48 -34 -81.5t-83 -33.5q-47 0 -80 34.5t-33 80.5zM616 1708q0 44 35 77.5t82 33.5t81 -32.5t34 -78.5q0 -47 -34 -81t-81 -34t-82 34.5t-35 80.5z" />
<glyph unicode="&#xcc;" horiz-adv-x="505" d="M19 1825q0 35 25.5 59.5t56.5 24.5q24 0 37 -7t30 -24l21 -20q12 -12 40 -38.5t48 -46t42 -43.5t34 -43.5t12 -33.5q0 -37 -25.5 -61.5t-60.5 -24.5q-42 0 -80 41l-154 160q-26 26 -26 57zM139 86v1270q0 43 33 74.5t80 31.5q46 0 79.5 -31.5t33.5 -74.5v-1270 q0 -42 -34 -74t-79 -32q-47 0 -80 32t-33 74z" />
<glyph unicode="&#xcd;" horiz-adv-x="505" d="M139 86v1270q0 43 33 74.5t80 31.5q46 0 79.5 -31.5t33.5 -74.5v-1270q0 -42 -34 -74t-79 -32q-47 0 -80 32t-33 74zM141 1653q0 14 12 33.5t34 43.5t42 43.5t48 46t40 38.5l21 20q17 17 30.5 24t37.5 7q31 0 56 -24.5t25 -59.5q0 -32 -26 -58l-154 -159q-38 -41 -80 -41 q-35 0 -60.5 24.5t-25.5 61.5z" />
<glyph unicode="&#xce;" horiz-adv-x="505" d="M-14 1631q0 42 65 94l142 112q31 23 61 23q31 0 62 -23l141 -112q65 -52 65 -94q0 -32 -27.5 -53t-60.5 -21q-24 0 -54.5 21.5t-71.5 61t-54 50.5q-13 -11 -54 -50.5t-71.5 -61t-54.5 -21.5q-33 0 -60.5 21t-27.5 53zM139 86v1270q0 43 33 74.5t80 31.5q46 0 79.5 -31.5 t33.5 -74.5v-1270q0 -42 -34 -74t-79 -32q-47 0 -80 32t-33 74z" />
<glyph unicode="&#xcf;" horiz-adv-x="505" d="M-39 1708q0 45 33 78t80 33q49 0 82.5 -32.5t33.5 -78.5q0 -48 -33.5 -81.5t-82.5 -33.5q-47 0 -80 34.5t-33 80.5zM139 86v1270q0 43 33 74.5t80 31.5q46 0 79.5 -31.5t33.5 -74.5v-1270q0 -42 -34 -74t-79 -32q-47 0 -80 32t-33 74zM315 1708q0 44 35 77.5t82 33.5 t81 -32.5t34 -78.5q0 -47 -34 -81t-81 -34t-82 34.5t-35 80.5z" />
<glyph unicode="&#xd0;" horiz-adv-x="1218" d="M27 723q0 40 31 70t75 30h49v498q0 51 38 87t91 36h232q128 0 230 -28.5t169 -77t111 -117t63 -144t19 -162.5v-368q0 -89 -18.5 -166.5t-63 -148.5t-111 -121.5t-168.5 -80.5t-231 -30h-232q-53 0 -91 36t-38 87v500h-49q-44 0 -75 29.5t-31 70.5zM408 209h170 q90 0 156 26t103 73.5t54.5 106.5t17.5 132v368q0 69 -18 125.5t-55.5 101t-103 69t-154.5 24.5h-170v-412h235q44 0 74.5 -30t30.5 -70q0 -41 -30.5 -70.5t-74.5 -29.5h-235v-414z" />
<glyph unicode="&#xd1;" horiz-adv-x="1269" d="M139 88v1260q0 50 33.5 82t85.5 32q34 0 65 -16.5t48 -44.5q42 -75 262.5 -475t269.5 -486v914q0 44 34.5 76t80.5 32t78 -32t32 -76v-1260q0 -47 -33.5 -80.5t-86.5 -33.5q-33 0 -64.5 16.5t-46.5 42.5l-532 960v-911q0 -43 -34.5 -75.5t-80.5 -32.5t-78.5 32t-32.5 76z M334 1676q0 62 52.5 104.5t121.5 42.5q43 0 83 -17.5t74 -36t60 -20.5q37 0 69.5 32.5t59.5 33.5q33 0 57.5 -23.5t24.5 -58.5q0 -55 -57 -95t-119 -42q-55 0 -124.5 36t-92.5 38q-23 1 -41.5 -8.5t-29 -22t-26.5 -23t-34 -10.5q-30 0 -54 19.5t-24 50.5z" />
<glyph unicode="&#xd2;" horiz-adv-x="1187" d="M92 512v422q0 111 28.5 204t87 167t157 115.5t229.5 41.5t229.5 -41.5t157 -115.5t87 -167t28.5 -204v-422q0 -112 -32 -208t-93 -168.5t-158 -114t-219 -41.5t-219 41.5t-158 114t-93 168.5t-32 208zM317 512q0 -148 69.5 -235t207.5 -87q137 0 206.5 87t69.5 235v422 q0 319 -276 319q-277 0 -277 -319v-422zM359 1825q0 35 25.5 59.5t56.5 24.5q24 0 37 -7t30 -24l21 -20q12 -12 40 -38.5t48 -46t42 -43.5t34 -43.5t12 -33.5q0 -37 -25.5 -61.5t-60.5 -24.5q-42 0 -80 41l-154 160q-26 26 -26 57z" />
<glyph unicode="&#xd3;" horiz-adv-x="1187" d="M92 512v422q0 111 28.5 204t87 167t157 115.5t229.5 41.5t229.5 -41.5t157 -115.5t87 -167t28.5 -204v-422q0 -112 -32 -208t-93 -168.5t-158 -114t-219 -41.5t-219 41.5t-158 114t-93 168.5t-32 208zM317 512q0 -148 69.5 -235t207.5 -87q137 0 206.5 87t69.5 235v422 q0 319 -276 319q-277 0 -277 -319v-422zM477 1653q0 14 12 33.5t34 43.5t42 43.5t48 46t40 38.5l21 20q17 17 30 24t37 7q31 0 56.5 -24.5t25.5 -59.5q0 -32 -26 -58l-154 -159q-38 -41 -80 -41q-35 0 -60.5 24.5t-25.5 61.5z" />
<glyph unicode="&#xd4;" horiz-adv-x="1187" d="M92 512v422q0 111 28.5 204t87 167t157 115.5t229.5 41.5t229.5 -41.5t157 -115.5t87 -167t28.5 -204v-422q0 -112 -32 -208t-93 -168.5t-158 -114t-219 -41.5t-219 41.5t-158 114t-93 168.5t-32 208zM317 512q0 -148 69.5 -235t207.5 -87q137 0 206.5 87t69.5 235v422 q0 319 -276 319q-277 0 -277 -319v-422zM326 1631q0 42 65 94l142 112q31 23 61 23q31 0 62 -23l141 -112q65 -52 65 -94q0 -32 -27.5 -53t-60.5 -21q-24 0 -54.5 21.5t-71.5 61t-54 50.5q-13 -11 -54 -50.5t-71.5 -61t-54.5 -21.5q-33 0 -60.5 21t-27.5 53z" />
<glyph unicode="&#xd5;" horiz-adv-x="1187" d="M92 512v422q0 111 28.5 204t87 167t157 115.5t229.5 41.5t229.5 -41.5t157 -115.5t87 -167t28.5 -204v-422q0 -112 -32 -208t-93 -168.5t-158 -114t-219 -41.5t-219 41.5t-158 114t-93 168.5t-32 208zM293 1675q0 62 52.5 105t121.5 43q43 0 83 -17.5t74 -36t60 -20.5 q37 0 69.5 32.5t59.5 33.5q33 0 57.5 -23.5t24.5 -58.5q0 -55 -57 -95.5t-119 -42.5q-55 0 -124.5 36t-92.5 38q-29 2 -50 -14t-40 -32.5t-41 -16.5q-30 0 -54 19t-24 50zM317 512q0 -148 69.5 -235t207.5 -87q137 0 206.5 87t69.5 235v422q0 319 -276 319q-277 0 -277 -319 v-422z" />
<glyph unicode="&#xd6;" horiz-adv-x="1187" d="M92 512v422q0 111 28.5 204t87 167t157 115.5t229.5 41.5t229.5 -41.5t157 -115.5t87 -167t28.5 -204v-422q0 -112 -32 -208t-93 -168.5t-158 -114t-219 -41.5t-219 41.5t-158 114t-93 168.5t-32 208zM301 1708q0 45 32.5 78t79.5 33q49 0 83 -32.5t34 -78.5 q0 -47 -34 -80.5t-83 -33.5q-47 0 -79.5 34t-32.5 80zM317 512q0 -148 69.5 -235t207.5 -87q137 0 206.5 87t69.5 235v422q0 319 -276 319q-277 0 -277 -319v-422zM655 1708q0 44 35 77.5t82 33.5t80.5 -32.5t33.5 -78.5q0 -47 -33.5 -80.5t-80.5 -33.5t-82 34t-35 80z" />
<glyph unicode="&#xd8;" horiz-adv-x="1169" d="M62.5 39.5q-3.5 21.5 9.5 40.5l86 125q-76 128 -76 307v422q0 111 28.5 204t87 167t157 115.5t229.5 41.5q235 0 362 -133l66 94q12 19 34 23t41 -8q18 -12 22 -33.5t-9 -40.5l-88 -125q73 -128 73 -305v-422q0 -112 -32 -208t-93 -168.5t-157.5 -114t-218.5 -41.5 q-224 0 -359 135l-65 -95q-12 -18 -34.5 -22t-41.5 8q-18 12 -21.5 33.5zM307 512q0 -61 6 -86l500 715q-66 112 -229 112q-277 0 -277 -319v-422zM356 303q71 -113 228 -113q137 0 206.5 87t69.5 235v422q0 12 -1 25.5t-2.5 29.5t-2.5 25z" />
<glyph unicode="&#xd9;" horiz-adv-x="1212" d="M123 481v871q0 47 33 78.5t82 31.5q45 0 77.5 -32.5t32.5 -77.5v-871q0 -134 65 -212.5t193 -78.5q126 0 191 79t65 212v871q0 45 32 77.5t79 32.5q49 0 83 -32.5t34 -77.5v-871q0 -222 -130.5 -361.5t-353.5 -139.5q-152 0 -262.5 65.5t-165.5 177.5t-55 258zM367 1825 q0 35 25.5 59.5t56.5 24.5q24 0 37 -7t30 -24l21 -20q12 -12 40 -38.5t48 -46t42 -43.5t34 -43.5t12 -33.5q0 -37 -25.5 -61.5t-60.5 -24.5q-42 0 -80 41l-154 160q-26 26 -26 57z" />
<glyph unicode="&#xda;" horiz-adv-x="1212" d="M123 481v871q0 47 33 78.5t82 31.5q45 0 77.5 -32.5t32.5 -77.5v-871q0 -134 65 -212.5t193 -78.5q126 0 191 79t65 212v871q0 45 32 77.5t79 32.5q49 0 83 -32.5t34 -77.5v-871q0 -222 -130.5 -361.5t-353.5 -139.5q-152 0 -262.5 65.5t-165.5 177.5t-55 258zM508 1653 q0 14 12 33.5t34 43.5t42 43.5t48 46t40 38.5l21 20q17 17 30 24t37 7q31 0 56.5 -24.5t25.5 -59.5q0 -31 -27 -58l-153 -159q-38 -41 -80 -41q-35 0 -60.5 24.5t-25.5 61.5z" />
<glyph unicode="&#xdb;" horiz-adv-x="1212" d="M123 481v871q0 47 33 78.5t82 31.5q45 0 77.5 -32.5t32.5 -77.5v-871q0 -134 65 -212.5t193 -78.5q126 0 191 79t65 212v871q0 45 32 77.5t79 32.5q49 0 83 -32.5t34 -77.5v-871q0 -222 -130.5 -361.5t-353.5 -139.5q-152 0 -262.5 65.5t-165.5 177.5t-55 258zM338 1631 q0 42 65 94l142 112q31 23 61 23q31 0 62 -23l141 -112q65 -52 65 -94q0 -32 -27.5 -53t-60.5 -21q-24 0 -54.5 21.5t-71.5 61t-54 50.5q-13 -11 -54 -50.5t-71.5 -61t-54.5 -21.5q-33 0 -60.5 21t-27.5 53z" />
<glyph unicode="&#xdc;" horiz-adv-x="1212" d="M123 481v871q0 47 33 78.5t82 31.5q45 0 77.5 -32.5t32.5 -77.5v-871q0 -134 65 -212.5t193 -78.5q126 0 191 79t65 212v871q0 45 32 77.5t79 32.5q49 0 83 -32.5t34 -77.5v-871q0 -222 -130.5 -361.5t-353.5 -139.5q-152 0 -262.5 65.5t-165.5 177.5t-55 258zM311 1708 q0 45 33 78t80 33q49 0 83 -32.5t34 -78.5q0 -48 -34 -81.5t-83 -33.5q-47 0 -80 34.5t-33 80.5zM666 1708q0 44 34.5 77.5t81.5 33.5t81 -32.5t34 -78.5q0 -47 -34 -81t-81 -34t-81.5 34.5t-34.5 80.5z" />
<glyph unicode="&#xdd;" horiz-adv-x="1030" d="M27 1354q0 43 35 75.5t79 32.5q64 0 90 -47l283 -590l283 590q26 47 90 47q45 0 79.5 -32t34.5 -76q0 -14 -10 -49l-362 -742v-473q0 -44 -33.5 -77t-81.5 -33q-47 0 -81 33t-34 77v475l-362 740q-10 30 -10 49zM385 1653q0 14 12 33.5t34 43.5t42 43.5t48 46t40 38.5 l21 20q17 17 30 24t37 7q31 0 56.5 -24.5t25.5 -59.5q0 -30 -27 -57l-153 -160q-38 -41 -80 -41q-35 0 -60.5 24.5t-25.5 61.5z" />
<glyph unicode="&#xde;" horiz-adv-x="1126" d="M139 88v1268q0 44 33.5 76t79.5 32t79.5 -32.5t33.5 -75.5v-156h204q105 0 189.5 -25t140.5 -68t93 -102.5t53 -125.5t16 -140q0 -215 -132 -333.5t-360 -118.5h-204v-199q0 -43 -33.5 -75.5t-79.5 -32.5t-79.5 32.5t-33.5 75.5zM365 496h204q267 0 267 245 q0 50 -12 90.5t-39.5 78t-82.5 58.5t-133 21h-204v-493z" />
<glyph unicode="&#xdf;" horiz-adv-x="1181" d="M139 -23v1029q0 218 112 340t320 122q180 0 293 -92t113 -260q0 -200 -168 -293q-13 -7 -45 -21t-49 -24t-17 -18q0 -15 61 -35q7 -3 11 -4q76 -32 129.5 -63t103 -76t74.5 -104.5t25 -133.5q0 -170 -114.5 -261t-307.5 -91q-112 0 -173 31.5t-61 85.5q0 39 26.5 67.5 t76.5 28.5q22 0 74 -10.5t82 -10.5q69 0 118 38t49 114q0 60 -22 103.5t-56.5 67.5t-77 41.5t-84.5 32.5t-76.5 33.5t-56.5 50t-22 76.5q0 42 15.5 72t40.5 47t55 31t60.5 29t55.5 35.5t40.5 57t15.5 87.5q0 85 -54.5 129.5t-144.5 44.5q-104 0 -152.5 -64t-48.5 -198v-1035 q0 -42 -31.5 -72t-78.5 -30q-46 0 -78.5 30.5t-32.5 71.5z" />
<glyph unicode="&#xe0;" horiz-adv-x="1028" d="M82 301v6q0 309 383 309q95 0 184 -24v90q0 180 -188 180q-56 0 -121 -26l-39 -17q-20 -10 -53 -10q-41 0 -62.5 27t-21.5 63q0 76 92 114t225 38q203 0 296 -104.5t93 -313.5v-416q0 -35 12.5 -47.5t39.5 -17.5q61 -11 61 -74q0 -86 -121 -86q-107 0 -164 92 q-113 -98 -278 -98q-164 0 -251 84.5t-87 230.5zM301 299q0 -64 36 -96.5t118 -32.5q105 0 194 72v184q-97 23 -178 23q-99 0 -134.5 -38t-35.5 -106v-6zM320 1415q0 35 25.5 59.5t56.5 24.5q24 0 37 -7t30 -24l21 -20q12 -12 40 -38.5t48 -46t42 -43.5t34 -43.5t12 -33.5 q0 -37 -25.5 -61.5t-60.5 -24.5q-42 0 -80 41l-154 160q-26 26 -26 57z" />
<glyph unicode="&#xe1;" horiz-adv-x="1028" d="M82 301v6q0 309 383 309q95 0 184 -24v90q0 180 -188 180q-56 0 -121 -26l-39 -17q-20 -10 -53 -10q-41 0 -62.5 27t-21.5 63q0 76 92 114t225 38q203 0 296 -104.5t93 -313.5v-416q0 -35 12.5 -47.5t39.5 -17.5q61 -11 61 -74q0 -86 -121 -86q-107 0 -164 92 q-113 -98 -278 -98q-164 0 -251 84.5t-87 230.5zM301 299q0 -64 36 -96.5t118 -32.5q105 0 194 72v184q-97 23 -178 23q-99 0 -134.5 -38t-35.5 -106v-6zM369 1243q0 14 12 33.5t34 43.5t42 43.5t48 46t40 38.5l20 20q17 17 30.5 24t37.5 7q31 0 56.5 -24.5t25.5 -59.5 q0 -30 -27 -57l-153 -160q-38 -41 -80 -41q-35 0 -60.5 24.5t-25.5 61.5z" />
<glyph unicode="&#xe2;" horiz-adv-x="1028" d="M82 301v6q0 309 383 309q95 0 184 -24v90q0 180 -188 180q-56 0 -121 -26l-39 -17q-20 -10 -53 -10q-41 0 -62.5 27t-21.5 63q0 76 92 114t225 38q203 0 296 -104.5t93 -313.5v-416q0 -35 12.5 -47.5t39.5 -17.5q61 -11 61 -74q0 -86 -121 -86q-107 0 -164 92 q-113 -98 -278 -98q-164 0 -251 84.5t-87 230.5zM246 1221q0 42 65 94l142 112q31 23 61 23q31 0 62 -23l141 -112q65 -52 65 -94q0 -32 -27.5 -53t-60.5 -21q-24 0 -54.5 21.5t-71.5 61t-54 50.5q-13 -11 -54 -50.5t-71.5 -61t-54.5 -21.5q-33 0 -60.5 21t-27.5 53z M301 299q0 -64 36 -96.5t118 -32.5q105 0 194 72v184q-97 23 -178 23q-99 0 -134.5 -38t-35.5 -106v-6z" />
<glyph unicode="&#xe3;" horiz-adv-x="1028" d="M82 301v6q0 309 383 309q95 0 184 -24v90q0 180 -188 180q-56 0 -121 -26l-39 -17q-20 -10 -53 -10q-41 0 -62.5 27t-21.5 63q0 76 92 114t225 38q203 0 296 -104.5t93 -313.5v-416q0 -35 12.5 -47.5t39.5 -17.5q61 -11 61 -74q0 -86 -121 -86q-107 0 -164 92 q-113 -98 -278 -98q-164 0 -251 84.5t-87 230.5zM213 1266q0 62 52.5 104.5t121.5 42.5q43 0 83 -17.5t74 -36t60 -20.5q37 0 69.5 32.5t59.5 33.5q33 0 57.5 -23.5t24.5 -58.5q0 -55 -57 -95t-119 -42q-55 0 -124.5 36t-92.5 38q-23 1 -41.5 -8.5t-29 -22t-26.5 -23 t-34 -10.5q-30 0 -54 19.5t-24 50.5zM301 299q0 -64 36 -96.5t118 -32.5q105 0 194 72v184q-97 23 -178 23q-99 0 -134.5 -38t-35.5 -106v-6z" />
<glyph unicode="&#xe4;" horiz-adv-x="1028" d="M82 301v6q0 309 383 309q95 0 184 -24v90q0 180 -188 180q-56 0 -121 -26l-39 -17q-20 -10 -53 -10q-41 0 -62.5 27t-21.5 63q0 76 92 114t225 38q203 0 296 -104.5t93 -313.5v-416q0 -35 12.5 -47.5t39.5 -17.5q61 -11 61 -74q0 -86 -121 -86q-107 0 -164 92 q-113 -98 -278 -98q-164 0 -251 84.5t-87 230.5zM219 1298q0 45 32.5 78t79.5 33q49 0 83 -32.5t34 -78.5q0 -47 -34 -80.5t-83 -33.5q-47 0 -79.5 34t-32.5 80zM301 299q0 -64 36 -96.5t118 -32.5q105 0 194 72v184q-97 23 -178 23q-99 0 -134.5 -38t-35.5 -106v-6z M573 1298q0 44 35 77.5t82 33.5t80.5 -32.5t33.5 -78.5q0 -47 -33.5 -80.5t-80.5 -33.5t-82 34t-35 80z" />
<glyph unicode="&#xe5;" horiz-adv-x="1028" d="M82 301v6q0 309 383 309q95 0 184 -24v90q0 180 -188 180q-56 0 -121 -26l-39 -17q-20 -10 -53 -10q-41 0 -62.5 27t-21.5 63q0 76 92 114t225 38q203 0 296 -104.5t93 -313.5v-416q0 -35 12.5 -47.5t39.5 -17.5q61 -11 61 -74q0 -86 -121 -86q-107 0 -164 92 q-113 -98 -278 -98q-164 0 -251 84.5t-87 230.5zM301 299q0 -64 36 -96.5t118 -32.5q105 0 194 72v184q-97 23 -178 23q-99 0 -134.5 -38t-35.5 -106v-6zM301 1319q0 88 62.5 150.5t152.5 62.5q89 0 151 -62.5t62 -150.5q0 -89 -62 -151t-151 -62q-91 0 -153 62t-62 151z M416 1319q0 -41 29.5 -70.5t70.5 -29.5t70.5 29.5t29.5 70.5t-29.5 71.5t-70.5 30.5t-70.5 -30.5t-29.5 -71.5z" />
<glyph unicode="&#xe6;" horiz-adv-x="1458" d="M61 305v6q0 316 392 316q93 0 176 -21v76q0 92 -46.5 136t-142.5 44q-30 0 -57 -6t-42.5 -12t-43.5 -19q-1 0 -14 -5.5t-25.5 -9t-26.5 -3.5q-41 0 -63.5 26.5t-24.5 61.5q-5 53 43.5 89.5t119.5 51.5t155 15q197 0 280 -136q95 136 301 136q175 0 269 -92t94 -250 q0 -316 -377 -316q-82 0 -178 13v-82q0 -71 49.5 -111.5t142.5 -40.5q37 0 73.5 8t58 16t67.5 27q30 10 43 10q42 0 72 -29t30 -67q0 -41 -39 -72.5t-98 -48t-115.5 -24.5t-103.5 -8q-192 0 -287 125q-143 -125 -337 -125q-169 0 -257 86t-88 235zM281 303q0 -62 34 -95.5 t115 -33.5q106 0 199 72v174q-89 24 -178 24q-99 0 -134.5 -35.5t-35.5 -99.5v-6zM850 588q143 -13 184 -13q87 0 119.5 37t32.5 97q0 149 -156 149q-86 0 -133 -39.5t-47 -109.5v-121z" />
<glyph unicode="&#xe7;" horiz-adv-x="856" d="M92 369v293q0 82 23.5 150.5t70.5 121t124 81.5t177 29q47 0 96.5 -7t102 -22t86 -47t33.5 -75q0 -38 -30 -62t-77 -24q-8 0 -24 4l-43 16q-77 29 -127 29q-100 0 -145.5 -49.5t-45.5 -144.5v-293q0 -197 191 -197q48 0 109 25.5t92 25.5q47 0 71.5 -24.5t24.5 -57.5 q0 -41 -27.5 -72t-73 -47.5t-90.5 -24.5t-94 -11q-4 -20 -8 -60q215 -11 215 -178q0 -81 -62.5 -133.5t-168.5 -52.5q-46 0 -90 9.5t-78.5 32.5t-34.5 56q0 45 55 45q10 0 58.5 -6t78.5 -6q45 0 68.5 19t23.5 46q0 28 -32 43.5t-70 20t-70 20t-32 43.5q0 39 16 109 q-146 25 -219.5 126.5t-73.5 248.5z" />
<glyph unicode="&#xe8;" horiz-adv-x="942" d="M92 334v362q0 156 107 255.5t299 99.5q182 0 276 -91t94 -249q0 -308 -372 -308q-84 0 -183 15v-94q0 -71 49 -111.5t144 -40.5q87 0 199 51q15 10 45 10q48 0 74 -28.5t26 -63.5q0 -43 -38.5 -76t-98.5 -49.5t-117 -24t-109 -7.5q-184 0 -289.5 98t-105.5 252zM256 1415 q0 35 25.5 59.5t56.5 24.5q24 0 37 -7t30 -24l21 -20q12 -12 40 -38.5t48 -46t42 -43.5t34 -43.5t12 -33.5q0 -37 -25.5 -61.5t-60.5 -24.5q-42 0 -80 41l-154 160q-26 26 -26 57zM313 588q114 -13 181 -13q84 0 119.5 36.5t35.5 105.5q0 80 -39 115.5t-116 35.5 q-86 0 -133.5 -42.5t-47.5 -116.5v-121z" />
<glyph unicode="&#xe9;" horiz-adv-x="942" d="M92 334v362q0 156 107 255.5t299 99.5q182 0 276 -91t94 -249q0 -308 -372 -308q-84 0 -183 15v-94q0 -71 49 -111.5t144 -40.5q87 0 199 51q15 10 45 10q48 0 74 -28.5t26 -63.5q0 -43 -38.5 -76t-98.5 -49.5t-117 -24t-109 -7.5q-184 0 -289.5 98t-105.5 252zM313 588 q114 -13 181 -13q84 0 119.5 36.5t35.5 105.5q0 80 -39 115.5t-116 35.5q-86 0 -133.5 -42.5t-47.5 -116.5v-121zM381 1243q0 14 12 33.5t34 43.5t42 43.5t48 46t40 38.5l21 20q17 17 30 24t37 7q31 0 56.5 -24.5t25.5 -59.5q0 -30 -27 -57l-153 -160q-38 -41 -80 -41 q-35 0 -60.5 24.5t-25.5 61.5z" />
<glyph unicode="&#xea;" horiz-adv-x="942" d="M92 334v362q0 156 107 255.5t299 99.5q182 0 276 -91t94 -249q0 -308 -372 -308q-84 0 -183 15v-94q0 -71 49 -111.5t144 -40.5q87 0 199 51q15 10 45 10q48 0 74 -28.5t26 -63.5q0 -43 -38.5 -76t-98.5 -49.5t-117 -24t-109 -7.5q-184 0 -289.5 98t-105.5 252zM213 1221 q0 42 65 94l142 112q31 23 61 23q31 0 62 -23l141 -112q65 -52 65 -94q0 -32 -27.5 -53t-60.5 -21q-24 0 -54.5 21.5t-71.5 61t-54 50.5q-13 -11 -54 -50.5t-71.5 -61t-54.5 -21.5q-33 0 -60.5 21t-27.5 53zM313 588q114 -13 181 -13q84 0 119.5 36.5t35.5 105.5 q0 80 -39 115.5t-116 35.5q-86 0 -133.5 -42.5t-47.5 -116.5v-121z" />
<glyph unicode="&#xeb;" horiz-adv-x="942" d="M92 334v362q0 156 107 255.5t299 99.5q182 0 276 -91t94 -249q0 -308 -372 -308q-84 0 -183 15v-94q0 -71 49 -111.5t144 -40.5q87 0 199 51q15 10 45 10q48 0 74 -28.5t26 -63.5q0 -43 -38.5 -76t-98.5 -49.5t-117 -24t-109 -7.5q-184 0 -289.5 98t-105.5 252zM178 1298 q0 45 33 78t80 33q49 0 83 -32.5t34 -78.5q0 -47 -34 -80.5t-83 -33.5q-47 0 -80 34t-33 80zM313 588q114 -13 181 -13q84 0 119.5 36.5t35.5 105.5q0 80 -39 115.5t-116 35.5q-86 0 -133.5 -42.5t-47.5 -116.5v-121zM532 1298q0 44 35 77.5t82 33.5t81 -32.5t34 -78.5 q0 -47 -34 -80.5t-81 -33.5t-82 34t-35 80z" />
<glyph unicode="&#xec;" horiz-adv-x="542" d="M25 1415q0 35 25 59.5t56 24.5q24 0 37.5 -7t30.5 -24l21 -20q12 -12 40 -38.5t48 -46t42 -43.5t34 -43.5t12 -33.5q0 -37 -25.5 -61.5t-60.5 -24.5q-42 0 -80 41l-154 160q-26 26 -26 57zM160 88v854q0 42 31.5 72t78.5 30q46 0 78.5 -30.5t32.5 -71.5v-854 q0 -44 -32.5 -74t-78.5 -30q-47 0 -78.5 30t-31.5 74z" />
<glyph unicode="&#xed;" horiz-adv-x="542" d="M160 88v854q0 42 31.5 72t78.5 30q46 0 78.5 -30.5t32.5 -71.5v-854q0 -44 -32.5 -74t-78.5 -30q-47 0 -78.5 30t-31.5 74zM176 1243q0 14 12 33.5t34 43.5t42 43.5t48 46t40 38.5l21 20q17 17 30 24t37 7q31 0 56.5 -24.5t25.5 -59.5q0 -31 -26 -57l-154 -160 q-38 -41 -80 -41q-35 0 -60.5 24.5t-25.5 61.5z" />
<glyph unicode="&#xee;" horiz-adv-x="542" d="M4 1221q0 42 66 94l141 112q31 23 61 23q31 0 62 -23l141 -112q66 -52 66 -94q0 -32 -27.5 -53t-60.5 -21q-24 0 -54.5 21.5t-72 61.5t-54.5 50q-13 -11 -54 -50.5t-71.5 -61t-54.5 -21.5q-33 0 -60.5 21t-27.5 53zM160 88v854q0 42 31.5 72t78.5 30q46 0 78.5 -30.5 t32.5 -71.5v-854q0 -44 -32.5 -74t-78.5 -30q-47 0 -78.5 30t-31.5 74z" />
<glyph unicode="&#xef;" horiz-adv-x="542" d="M-20 1298q0 45 32.5 78t79.5 33q49 0 83 -32.5t34 -78.5q0 -47 -34 -80.5t-83 -33.5q-47 0 -79.5 34t-32.5 80zM160 88v854q0 42 31.5 72t78.5 30q46 0 78.5 -30.5t32.5 -71.5v-854q0 -44 -32.5 -74t-78.5 -30q-47 0 -78.5 30t-31.5 74zM334 1298q0 44 35 77.5t82 33.5 t80.5 -32.5t33.5 -78.5q0 -47 -33.5 -80.5t-80.5 -33.5t-82 34t-35 80z" />
<glyph unicode="&#xf0;" horiz-adv-x="1099" d="M88 436q0 202 108.5 333.5t303.5 131.5q156 0 274 -78q-5 158 -39 260l-104 -63q-30 -21 -49 -21q-24 -3 -45.5 18.5t-20.5 49.5q0 40 29 57l121 78q-56 54 -172 66q-19 1 -31 4t-27 11.5t-21.5 28.5t-4.5 50q3 47 32.5 67.5t110.5 20.5q174 0 285 -129l106 72 q21 15 49 18q24 1 39 -11.5t18 -25.5l3 -12q8 -3 8 -19q0 -38 -29 -55l-121 -80q95 -208 95 -551q0 -161 -20.5 -279.5t-56.5 -194.5t-93 -121.5t-122 -63.5t-151 -18q-238 0 -356.5 125t-118.5 331zM309 446q0 -122 59.5 -195t184.5 -73q126 0 176.5 91.5t50.5 301.5v41 q-46 41 -124 68t-142 27q-96 0 -150.5 -69.5t-54.5 -191.5z" />
<glyph unicode="&#xf1;" horiz-adv-x="1083" d="M96 922q0 40 30.5 67t76.5 27q55 0 96 -60q133 91 283 91q174 0 265 -106t91 -288v-565q0 -44 -30 -73t-81 -29q-52 0 -81 28.5t-29 73.5v565q0 97 -43 151t-119 54q-89 0 -193 -63q7 -32 7 -50v-657q0 -45 -29 -73.5t-82 -28.5t-82 28.5t-29 73.5v657q0 26 -1 44t-5 30 t-5.5 17t-7.5 13.5t-7 10.5q-25 39 -25 62zM215 1266q0 62 52.5 104.5t121.5 42.5q43 0 83 -17.5t74 -36t60 -20.5q37 0 69.5 32.5t59.5 33.5q33 0 57.5 -23.5t24.5 -58.5q0 -55 -57 -95t-119 -42q-55 0 -124.5 36t-92.5 38q-23 1 -41.5 -8.5t-29 -22t-26.5 -23t-34 -10.5 q-30 0 -54 19.5t-24 50.5z" />
<glyph unicode="&#xf2;" horiz-adv-x="1011" d="M92 356v324q0 164 109 268.5t305 104.5t305 -104.5t109 -268.5v-324q0 -163 -109 -267.5t-305 -104.5t-305 104.5t-109 267.5zM270 1415q0 35 25.5 59.5t56.5 24.5q24 0 37 -7t30 -24l21 -20q12 -12 40 -38.5t48 -46t42 -43.5t34 -43.5t12 -33.5q0 -37 -25.5 -61.5 t-60.5 -24.5q-42 0 -80 41l-154 160q-26 26 -26 57zM313 356q0 -84 49.5 -131t143.5 -47t143 46.5t49 131.5v326q0 83 -49 129.5t-143 46.5t-143.5 -46.5t-49.5 -129.5v-326z" />
<glyph unicode="&#xf3;" horiz-adv-x="1011" d="M92 356v324q0 164 109 268.5t305 104.5t305 -104.5t109 -268.5v-324q0 -163 -109 -267.5t-305 -104.5t-305 104.5t-109 267.5zM313 356q0 -84 49.5 -131t143.5 -47t143 46.5t49 131.5v326q0 83 -49 129.5t-143 46.5t-143.5 -46.5t-49.5 -129.5v-326zM371 1243 q0 14 12 33.5t34 43.5t42 43.5t48 46t40 38.5l20 20q17 17 30.5 24t37.5 7q31 0 56.5 -24.5t25.5 -59.5q0 -30 -27 -57l-153 -160q-38 -41 -80 -41q-35 0 -60.5 24.5t-25.5 61.5z" />
<glyph unicode="&#xf4;" horiz-adv-x="1011" d="M92 356v324q0 164 109 268.5t305 104.5t305 -104.5t109 -268.5v-324q0 -163 -109 -267.5t-305 -104.5t-305 104.5t-109 267.5zM238 1221q0 42 65 94l142 112q31 23 61 23q31 0 62 -23l141 -112q65 -52 65 -94q0 -32 -27.5 -53t-60.5 -21q-24 0 -54.5 21.5t-71.5 61 t-54 50.5q-13 -11 -54 -50.5t-71.5 -61t-54.5 -21.5q-33 0 -60.5 21t-27.5 53zM313 356q0 -84 49.5 -131t143.5 -47t143 46.5t49 131.5v326q0 83 -49 129.5t-143 46.5t-143.5 -46.5t-49.5 -129.5v-326z" />
<glyph unicode="&#xf5;" horiz-adv-x="1011" d="M92 356v324q0 164 109 268.5t305 104.5t305 -104.5t109 -268.5v-324q0 -163 -109 -267.5t-305 -104.5t-305 104.5t-109 267.5zM205 1266q0 62 52.5 104.5t121.5 42.5q43 0 83 -17.5t74 -36t60 -20.5q37 0 69.5 32.5t59.5 33.5q33 0 57.5 -23.5t24.5 -58.5q0 -55 -57 -95 t-119 -42q-55 0 -124.5 36t-92.5 38q-23 1 -41.5 -8.5t-29 -22t-26.5 -23t-34 -10.5q-30 0 -54 19.5t-24 50.5zM313 356q0 -84 49.5 -131t143.5 -47t143 46.5t49 131.5v326q0 83 -49 129.5t-143 46.5t-143.5 -46.5t-49.5 -129.5v-326z" />
<glyph unicode="&#xf6;" horiz-adv-x="1011" d="M92 356v324q0 164 109 268.5t305 104.5t305 -104.5t109 -268.5v-324q0 -163 -109 -267.5t-305 -104.5t-305 104.5t-109 267.5zM211 1298q0 45 32.5 78t79.5 33q49 0 83 -32.5t34 -78.5q0 -47 -34 -80.5t-83 -33.5q-47 0 -79.5 34t-32.5 80zM313 356q0 -84 49.5 -131 t143.5 -47t143 46.5t49 131.5v326q0 83 -49 129.5t-143 46.5t-143.5 -46.5t-49.5 -129.5v-326zM565 1298q0 44 35 77.5t82 33.5t80.5 -32.5t33.5 -78.5q0 -47 -33.5 -80.5t-80.5 -33.5t-82 34t-35 80z" />
<glyph unicode="&#xf8;" horiz-adv-x="1011" d="M92 356v324q0 164 109 268.5t305 104.5q156 0 262 -72l51 72q16 22 43 22q22 0 39 -16.5t17 -36.5q0 -13 -11 -31l-61 -86q74 -96 74 -225v-324q0 -163 -109 -266.5t-305 -103.5q-155 0 -258 65l-47 -69q-16 -23 -45 -23q-23 0 -38.5 16t-15.5 37q0 13 11 31l57 82 q-78 90 -78 231zM313 360q12 -4 19 -4q234 336 317 453q-52 49 -143 49q-94 0 -143.5 -46.5t-49.5 -129.5v-322zM367 221q49 -43 139 -43q94 0 143 46.5t49 131.5v285q0 33 -2 49z" />
<glyph unicode="&#xf9;" horiz-adv-x="1083" d="M141 379v565q0 44 29.5 72t81.5 28q51 0 80.5 -28t29.5 -72v-565q0 -99 40.5 -152t119.5 -53q89 0 193 55q-4 36 -4 50v665q0 45 28 72.5t82 27.5t82.5 -27.5t28.5 -72.5v-686q0 -26 4 -45t5.5 -24t14 -21.5t13.5 -17.5q22 -26 22 -56q0 -43 -31.5 -70.5t-72.5 -27.5 q-61 0 -107 70q-128 -82 -286 -82q-170 0 -261.5 107t-91.5 288zM289 1415q0 35 25.5 59.5t56.5 24.5q24 0 37 -7t30 -24l21 -20q12 -12 40 -38.5t48 -46t42 -43.5t34 -43.5t12 -33.5q0 -37 -25.5 -61.5t-60.5 -24.5q-42 0 -80 41l-154 160q-26 26 -26 57z" />
<glyph unicode="&#xfa;" horiz-adv-x="1083" d="M141 379v565q0 44 29.5 72t81.5 28q51 0 80.5 -28t29.5 -72v-565q0 -99 40.5 -152t119.5 -53q89 0 193 55q-4 36 -4 50v665q0 45 28 72.5t82 27.5t82.5 -27.5t28.5 -72.5v-686q0 -26 4 -45t5.5 -24t14 -21.5t13.5 -17.5q22 -26 22 -56q0 -43 -31.5 -70.5t-72.5 -27.5 q-61 0 -107 70q-128 -82 -286 -82q-170 0 -261.5 107t-91.5 288zM444 1243q0 14 12 33.5t34 43.5t42.5 44t48 45.5t40.5 38.5l20 20q17 17 30.5 24t37.5 7q31 0 56.5 -24.5t25.5 -59.5q0 -30 -27 -57l-154 -160q-38 -41 -80 -41q-35 0 -60.5 24.5t-25.5 61.5z" />
<glyph unicode="&#xfb;" horiz-adv-x="1083" d="M141 379v565q0 44 29.5 72t81.5 28q51 0 80.5 -28t29.5 -72v-565q0 -99 40.5 -152t119.5 -53q89 0 193 55q-4 36 -4 50v665q0 45 28 72.5t82 27.5t82.5 -27.5t28.5 -72.5v-686q0 -26 4 -45t5.5 -24t14 -21.5t13.5 -17.5q22 -26 22 -56q0 -43 -31.5 -70.5t-72.5 -27.5 q-61 0 -107 70q-128 -82 -286 -82q-170 0 -261.5 107t-91.5 288zM272 1221q0 42 65 94l142 112q31 23 61 23q31 0 62 -23l141 -112q65 -52 65 -94q0 -32 -27.5 -53t-60.5 -21q-24 0 -54.5 21.5t-71.5 61t-54 50.5q-13 -11 -54 -50.5t-71.5 -61t-54.5 -21.5q-33 0 -60.5 21 t-27.5 53z" />
<glyph unicode="&#xfc;" horiz-adv-x="1083" d="M141 379v565q0 44 29.5 72t81.5 28q51 0 80.5 -28t29.5 -72v-565q0 -99 40.5 -152t119.5 -53q89 0 193 55q-4 36 -4 50v665q0 45 28 72.5t82 27.5t82.5 -27.5t28.5 -72.5v-686q0 -26 4 -45t5.5 -24t14 -21.5t13.5 -17.5q22 -26 22 -56q0 -43 -31.5 -70.5t-72.5 -27.5 q-61 0 -107 70q-128 -82 -286 -82q-170 0 -261.5 107t-91.5 288zM248 1298q0 45 32.5 78t79.5 33q49 0 83 -32.5t34 -78.5q0 -47 -34 -80.5t-83 -33.5q-47 0 -79.5 34t-32.5 80zM602 1298q0 44 35 77.5t82 33.5t81 -32.5t34 -78.5q0 -47 -34 -80.5t-81 -33.5t-82 34t-35 80z " />
<glyph unicode="&#xfd;" horiz-adv-x="907" d="M33 948q0 41 31.5 68.5t78.5 27.5q33 0 61.5 -18t39.5 -51l18 -55q132 -392 207 -623q95 356 195 678q10 33 40 51t64 18q43 0 77 -29t34 -73q0 -14 -7 -31l-249 -770q-28 -88 -44 -134.5t-44 -116t-50.5 -106t-58 -81.5t-73.5 -66.5t-89 -37t-112 -15.5q-49 0 -81 29 t-32 72q0 39 28 68t76 32q79 0 125.5 56t91.5 190l-321 876q-6 14 -6 41zM369 1243q0 14 12 33.5t34 43.5t42 43.5t48 46t40 38.5l21 20q17 17 30 24t37 7q31 0 56.5 -24.5t25.5 -59.5q0 -30 -27 -57l-153 -160q-38 -41 -80 -41q-35 0 -60.5 24.5t-25.5 61.5z" />
<glyph unicode="&#xfe;" horiz-adv-x="1044" d="M141 -342v1722q0 42 29.5 71.5t81.5 29.5q50 0 80 -29.5t30 -71.5v-399q109 70 248 70q175 0 258.5 -90t83.5 -240v-365q0 -149 -83.5 -239t-258.5 -90q-138 0 -248 71v-440q0 -42 -30 -72t-80 -30q-52 0 -81.5 30t-29.5 72zM362 283q77 -80 199 -80q170 0 170 149v375 q0 147 -170 147q-123 0 -199 -79v-512z" />
<glyph unicode="&#xff;" horiz-adv-x="907" d="M33 948q0 41 31.5 68.5t78.5 27.5q33 0 61.5 -18t39.5 -51l18 -55q132 -392 207 -623q95 356 195 678q10 33 40 51t64 18q43 0 77 -29t34 -73q0 -14 -7 -31l-249 -770q-28 -88 -44 -134.5t-44 -116t-50.5 -106t-58 -81.5t-73.5 -66.5t-89 -37t-112 -15.5q-49 0 -81 29 t-32 72q0 39 28 68t76 32q79 0 125.5 56t91.5 190l-321 876q-6 14 -6 41zM160 1298q0 45 32.5 78t79.5 33q49 0 83 -32.5t34 -78.5q0 -47 -34 -80.5t-83 -33.5q-47 0 -79.5 34t-32.5 80zM514 1298q0 44 35 77.5t82 33.5t80.5 -32.5t33.5 -78.5q0 -47 -33.5 -80.5 t-80.5 -33.5t-82 34t-35 80z" />
<glyph unicode="&#x131;" horiz-adv-x="542" d="M160 88v854q0 42 31.5 72t78.5 30q46 0 78.5 -30.5t32.5 -71.5v-854q0 -44 -32.5 -74t-78.5 -30q-47 0 -78.5 30t-31.5 74z" />
<glyph unicode="&#x152;" horiz-adv-x="1548" d="M61 473v500q0 104 26 190t79.5 154.5t144 106.5t211.5 38q157 0 258 -82q15 27 42.5 45.5t62.5 18.5h493q46 0 79.5 -32.5t33.5 -76.5q0 -42 -33.5 -72t-79.5 -30h-395v-404h356q43 0 77 -30.5t34 -73.5q0 -44 -32.5 -75.5t-78.5 -31.5h-356v-409h416q45 0 78.5 -29.5 t33.5 -70.5q0 -45 -33 -77t-79 -32h-481q-118 0 -142 70q-108 -90 -254 -90q-148 0 -254 67.5t-156.5 177t-50.5 248.5zM287 473q0 -130 59 -206.5t176 -76.5q116 0 176 77t60 206v500q0 280 -236 280q-235 0 -235 -280v-500z" />
<glyph unicode="&#x153;" horiz-adv-x="1497" d="M61 356v324q0 162 109 267.5t297 105.5q208 0 309 -142q93 140 305 140q172 0 267.5 -92t95.5 -250q0 -316 -377 -316q-79 0 -178 15v-84q0 -71 49.5 -111.5t142.5 -40.5q38 0 75 8t58.5 16t67.5 27h-2q15 10 43 10q42 0 72 -29t30 -67q0 -41 -39 -72.5t-98.5 -47.5 t-115 -23.5t-103.5 -7.5q-204 0 -297 137q-94 -137 -305 -137q-188 0 -297 105t-109 265zM283 356q0 -85 49 -131.5t143 -46.5t143.5 47t49.5 131v326q0 83 -49.5 129.5t-143.5 46.5t-143 -46.5t-49 -129.5v-326zM889 588q114 -13 184 -13q88 0 120 36.5t32 97.5 q0 149 -156 149q-86 0 -133 -39.5t-47 -109.5v-121z" />
<glyph unicode="&#x178;" horiz-adv-x="1030" d="M27 1354q0 43 35 75.5t79 32.5q64 0 90 -47l283 -590l283 590q26 47 90 47q45 0 79.5 -32t34.5 -76q0 -14 -10 -49l-362 -742v-473q0 -44 -33.5 -77t-81.5 -33q-47 0 -81 33t-34 77v475l-362 740q-10 30 -10 49zM222 1708q0 45 32.5 78t79.5 33q49 0 83 -32.5t34 -78.5 q0 -47 -34 -80.5t-83 -33.5q-47 0 -79.5 34t-32.5 80zM576 1708q0 44 35 77.5t82 33.5t80.5 -32.5t33.5 -78.5q0 -47 -33.5 -80.5t-80.5 -33.5t-82 34t-35 80z" />
<glyph unicode="&#x192;" horiz-adv-x="1048" d="M2 -332q0 40 33 60q0 29 19 45t52 16h41q1 0 4.5 -1t4.5 -1q64 0 95.5 35.5t45.5 116.5l145 798h-104q-60 0 -94.5 19t-34.5 75q0 49 28 72t72 23h170q34 200 56 269q47 152 152 207q76 40 192 40q151 0 151 -113q0 -30 -8.5 -48.5t-25.5 -26t-30 -9.5t-34 -2 q-13 0 -35.5 2t-28.5 2q-48 0 -82 -25.5t-43 -74.5l-41 -221h109q129 0 129 -97q0 -25 -8.5 -43t-20 -27.5t-31.5 -14.5t-35 -6t-38 -1h-139l-142 -755q-28 -193 -109.5 -291.5t-246.5 -98.5q-38 0 -64 2.5t-52 10t-39 23.5t-13 40z" />
<glyph unicode="&#x2c6;" horiz-adv-x="851" d="M166 1221q0 42 65 94l142 112q31 23 61 23q31 0 62 -23l141 -112q65 -52 65 -94q0 -32 -27.5 -53t-60.5 -21q-24 0 -54.5 21.5t-71.5 61t-54 50.5q-13 -11 -54 -50.5t-71.5 -61t-54.5 -21.5q-33 0 -60.5 21t-27.5 53z" />
<glyph unicode="&#x2c7;" horiz-adv-x="841" d="M152 1378q0 35 26 55.5t64 20.5q31 0 63 -22.5t71 -62.5t56 -54q17 13 56 53.5t71.5 63t63.5 22.5q38 0 64 -20.5t26 -55.5q0 -32 -33 -65q-57 -57 -132 -115.5t-116 -58.5t-116 58.5t-132 115.5q-32 32 -32 65z" />
<glyph unicode="&#x2d8;" horiz-adv-x="792" d="M117 1327q-11 49 12 71.5t61 22.5q41 0 76 -39q29 -35 58 -54t71 -19q41 0 69.5 19t57.5 54q31 39 76 39q38 0 61.5 -22.5t12.5 -71.5q-13 -53 -62 -95t-106.5 -61.5t-110.5 -19.5q-86 0 -172 50.5t-104 125.5z" />
<glyph unicode="&#x2d9;" horiz-adv-x="540" d="M156 1284q0 45 32.5 78t79.5 33q49 0 83 -32.5t34 -78.5q0 -48 -34 -81.5t-83 -33.5q-47 0 -79.5 34.5t-32.5 80.5z" />
<glyph unicode="&#x2da;" horiz-adv-x="1210" d="M362 1319q0 88 63 150.5t153 62.5q89 0 151 -62.5t62 -150.5q0 -89 -62 -151t-151 -62q-91 0 -153.5 62t-62.5 151zM477 1319q0 -41 30 -70.5t71 -29.5t70.5 29.5t29.5 70.5t-29.5 71.5t-70.5 30.5t-71 -30.5t-30 -71.5z" />
<glyph unicode="&#x2db;" horiz-adv-x="700" d="M147 -227q0 106 86 227h166l-30 -53q-47 -78 -47 -142q0 -69 79 -69q26 0 50 3t28 3q28 0 51 -22t23 -50q0 -94 -176 -94q-107 0 -168.5 49.5t-61.5 147.5z" />
<glyph unicode="&#x2dc;" horiz-adv-x="808" d="M98 1266q0 62 52.5 104.5t121.5 42.5q43 0 83 -17.5t74 -36t60 -20.5q37 0 69.5 32.5t59.5 33.5q33 0 57.5 -23.5t24.5 -58.5q0 -55 -57 -95t-119 -42q-55 0 -124.5 36t-92.5 38q-23 1 -41.5 -8.5t-29 -22t-26.5 -23t-34 -10.5q-30 0 -54 19.5t-24 50.5z" />
<glyph unicode="&#x2dd;" horiz-adv-x="880" d="M139 1231q0 16 8 29l129 188q3 3 14 18t15.5 19.5t15 13t21.5 11.5t25 3q32 0 59 -27t27 -61q0 -19 -17 -43l-123 -184q-19 -28 -38 -41.5t-48 -13.5q-35 0 -61.5 26.5t-26.5 61.5zM451 1229q0 19 10 31l129 188q14 22 22 32t26 21.5t40 11.5q32 0 61 -27.5t29 -58.5 q0 -13 -10 -30l-133 -199q-20 -29 -37.5 -42t-46.5 -13q-35 0 -62.5 26t-27.5 60z" />
<glyph unicode="&#x2000;" horiz-adv-x="954" />
<glyph unicode="&#x2001;" horiz-adv-x="1909" />
<glyph unicode="&#x2002;" horiz-adv-x="954" />
<glyph unicode="&#x2003;" horiz-adv-x="1909" />
<glyph unicode="&#x2004;" horiz-adv-x="636" />
<glyph unicode="&#x2005;" horiz-adv-x="477" />
<glyph unicode="&#x2006;" horiz-adv-x="318" />
<glyph unicode="&#x2007;" horiz-adv-x="318" />
<glyph unicode="&#x2008;" horiz-adv-x="238" />
<glyph unicode="&#x2009;" horiz-adv-x="381" />
<glyph unicode="&#x200a;" horiz-adv-x="106" />
<glyph unicode="&#x2010;" horiz-adv-x="858" d="M68 608q0 42 30.5 71.5t75.5 29.5h510q43 0 73.5 -30t30.5 -71t-30.5 -69.5t-73.5 -28.5h-510q-45 0 -75.5 28.5t-30.5 69.5z" />
<glyph unicode="&#x2011;" horiz-adv-x="858" d="M68 608q0 42 30.5 71.5t75.5 29.5h510q43 0 73.5 -30t30.5 -71t-30.5 -69.5t-73.5 -28.5h-510q-45 0 -75.5 28.5t-30.5 69.5z" />
<glyph unicode="&#x2012;" horiz-adv-x="858" d="M68 608q0 42 30.5 71.5t75.5 29.5h510q43 0 73.5 -30t30.5 -71t-30.5 -69.5t-73.5 -28.5h-510q-45 0 -75.5 28.5t-30.5 69.5z" />
<glyph unicode="&#x2013;" horiz-adv-x="923" d="M68 592q0 42 30.5 72t75.5 30h574q44 0 75 -30t31 -72q0 -41 -31.5 -69.5t-74.5 -28.5h-574q-45 0 -75.5 28.5t-30.5 69.5z" />
<glyph unicode="&#x2014;" horiz-adv-x="1126" d="M68 592q0 42 30.5 72t75.5 30h778q44 0 75.5 -30.5t31.5 -71.5t-32 -69.5t-75 -28.5h-778q-45 0 -75.5 28.5t-30.5 69.5z" />
<glyph unicode="&#x2018;" horiz-adv-x="509" d="M115 1106q0 66 26.5 155t68 156.5t79.5 67.5q26 0 45 -14t16 -50q-2 -35 -31.5 -89.5t-39.5 -96.5q51 -8 83.5 -45t32.5 -88q0 -54 -41.5 -93.5t-99.5 -39.5t-98.5 39t-40.5 98z" />
<glyph unicode="&#x2019;" horiz-adv-x="512" d="M115 1352q0 55 41 94t100 39q57 0 98 -39t41 -98q0 -65 -26.5 -154.5t-68.5 -157t-79 -67.5q-27 0 -46 14t-15 49q1 36 31.5 91t39.5 96q-51 8 -83.5 45t-32.5 88z" />
<glyph unicode="&#x201a;" horiz-adv-x="512" d="M115 117q0 55 41 94t100 39q57 0 98 -39t41 -98q0 -65 -26.5 -154.5t-68.5 -157t-79 -67.5q-27 0 -46 14t-15 49q1 36 31.5 91t39.5 96q-51 8 -83.5 45t-32.5 88z" />
<glyph unicode="&#x201c;" horiz-adv-x="858" d="M115 1106q0 66 26.5 155t68 156.5t79.5 67.5q26 0 45 -14t16 -50q-2 -35 -31.5 -89.5t-39.5 -96.5q51 -8 83.5 -45t32.5 -88q0 -54 -41.5 -93.5t-99.5 -39.5t-98.5 39t-40.5 98zM463 1106q0 65 26.5 154.5t68.5 157t79 67.5q28 0 46.5 -14t14.5 -50q-1 -36 -31.5 -90.5 t-39.5 -95.5q51 -8 83.5 -45t32.5 -88q0 -55 -41 -94t-100 -39q-57 0 -98 39t-41 98z" />
<glyph unicode="&#x201d;" horiz-adv-x="858" d="M115 1352q0 55 41 94t100 39q57 0 98 -39t41 -98q0 -65 -26.5 -154.5t-68.5 -157t-79 -67.5q-68 0 -61 63q1 36 31.5 91t39.5 96q-51 8 -83.5 45t-32.5 88zM463 1352q0 54 41.5 93.5t99.5 39.5t98.5 -39t40.5 -98q0 -66 -26.5 -155t-68 -156.5t-79.5 -67.5q-26 0 -45 14 t-16 49q2 35 32 90t40 97q-51 8 -84 45t-33 88z" />
<glyph unicode="&#x201e;" horiz-adv-x="858" d="M115 115q0 56 40.5 94.5t100.5 38.5q57 0 98 -39t41 -98q0 -64 -26.5 -153t-68.5 -156.5t-79 -67.5q-68 0 -61 63q1 36 31.5 90t39.5 95q-51 7 -83.5 45t-32.5 88zM463 115q0 55 41 94t100 39q58 0 98.5 -39t40.5 -98q0 -65 -26.5 -153.5t-68 -156t-79.5 -67.5 q-26 0 -45 14t-16 49q2 35 32 89t40 96q-51 7 -84 45t-33 88z" />
<glyph unicode="&#x2020;" horiz-adv-x="925" d="M-31 961q0 51 38 74.5t97 23.5h246v291q0 28 8 55.5t35 52.5t68 25q33 0 56.5 -12t35 -32t16 -39.5t4.5 -41.5v-299h267q37 0 75.5 -30.5t38.5 -67.5q0 -51 -33 -75t-81 -24h-267v-960q0 -37 -5 -55q-24 -73 -107 -74q-53 0 -82 38t-29 95v956h-246q-135 0 -135 99z" />
<glyph unicode="&#x2021;" horiz-adv-x="1216" d="M106 106q0 43 30.5 71t76.5 28h274v657h-274q-45 0 -76 28.5t-31 70.5t31 71t76 29h274v315q0 42 34 73.5t79 33.5q46 0 79.5 -32t33.5 -75v-315h274q43 0 75 -29.5t32 -70.5t-32 -70t-75 -29h-274v-657h274q44 0 75.5 -28.5t31.5 -70.5q0 -41 -32 -69.5t-75 -28.5h-274 v-309q0 -49 -32 -88t-81 -39q-54 0 -83.5 37t-29.5 90v309h-274q-46 0 -76.5 28.5t-30.5 69.5z" />
<glyph unicode="&#x2022;" horiz-adv-x="620" d="M133 561q0 71 52 122.5t124 51.5t124 -51.5t52 -122.5q0 -73 -52 -125.5t-124 -52.5t-124 52.5t-52 125.5z" />
<glyph unicode="&#x2026;" horiz-adv-x="1404" d="M115 115q0 56 40.5 95.5t98.5 39.5t99.5 -39.5t41.5 -95.5q0 -54 -41.5 -94.5t-99.5 -40.5t-98.5 40t-40.5 95zM561 115q0 56 41.5 95.5t99.5 39.5q57 0 98.5 -40t41.5 -95q0 -54 -41.5 -94.5t-98.5 -40.5q-58 0 -99.5 40.5t-41.5 94.5zM1010 115q0 56 40.5 95.5 t98.5 39.5t99.5 -39.5t41.5 -95.5q0 -54 -41.5 -94.5t-99.5 -40.5t-98.5 40t-40.5 95z" />
<glyph unicode="&#x202f;" horiz-adv-x="381" />
<glyph unicode="&#x2039;" horiz-adv-x="651" d="M74 524l311 469q17 28 33.5 41t42.5 13q32 0 60 -28.5t28 -68.5q0 -24 -10 -39l-258 -383l276 -405q10 -15 10 -35q0 -43 -26 -73.5t-66 -30.5q-26 0 -42 12t-36 43z" />
<glyph unicode="&#x203a;" horiz-adv-x="651" d="M84 88q0 20 10 35l277 405l-258 383q-11 16 -11 39q0 40 27.5 68.5t60.5 28.5q26 0 42.5 -13t33.5 -41l312 -469l-324 -485q-20 -31 -36 -43t-42 -12q-40 0 -66 30.5t-26 73.5z" />
<glyph unicode="&#x2044;" horiz-adv-x="284" d="M-141 14q0 15 2 35l475 1333q6 25 21 37.5t34 7.5q17 -5 27.5 -22t7.5 -37q0 -23 -2 -33l-475 -1337q-6 -25 -21 -37.5t-34 -7.5q-17 5 -27.5 22.5t-7.5 38.5z" />
<glyph unicode="&#x205f;" horiz-adv-x="477" />
<glyph unicode="&#x20ac;" d="M20 588q0 32 24.5 54t55.5 22h84v114h-84q-34 0 -57 22t-23 54t24.5 54t55.5 22h84v76q0 214 110.5 335t330.5 121q97 0 185.5 -26.5t143 -72t54.5 -97.5q0 -40 -30.5 -69.5t-74.5 -29.5q-14 0 -25.5 3t-17.5 6t-19 11.5t-20 12.5q-87 64 -186 64q-123 0 -174 -65 t-51 -193v-76h342q31 0 55 -22t24 -54t-22.5 -54t-56.5 -22h-342v-114h260q31 0 55.5 -22t24.5 -54t-23 -54t-57 -22h-260v-72q0 -128 51 -193t174 -65q97 0 190 66q6 3 19.5 10.5t19 10t16 5t23.5 2.5q44 0 74.5 -28.5t30.5 -67.5q0 -53 -54.5 -99t-142.5 -72.5t-186 -26.5 q-219 0 -330 122t-111 336v72h-84q-34 0 -57 22t-23 54z" />
<glyph unicode="&#x2122;" horiz-adv-x="1603" d="M20 1372q0 33 22.5 55.5t55.5 22.5h496q32 0 55 -23t23 -55q0 -33 -22.5 -55.5t-55.5 -22.5h-168v-641q0 -32 -23 -55t-57 -23t-57 23t-23 55v641h-168q-34 0 -56 22t-22 56zM758 651v727q0 35 22.5 58.5t57.5 23.5q54 0 77 -47l218 -444l217 444v-2q22 49 77 49 q31 0 55.5 -25.5t24.5 -56.5v-727q0 -31 -22.5 -53.5t-52.5 -22.5q-32 0 -55 22.5t-23 53.5v469l-148 -299q-23 -47 -73 -47q-53 0 -76 47l-148 299v-469q0 -31 -22.5 -53.5t-52.5 -22.5q-32 0 -54 22.5t-22 53.5z" />
<glyph unicode="&#x25fc;" horiz-adv-x="1044" d="M0 0v1044h1044v-1044h-1044z" />
</font>
</defs>
</svg>
