<?xml version="1.0" standalone="no"?>
<!DOCTYPE svg PUBLIC "-//W3C//DTD SVG 1.1//EN" "http://www.w3.org/Graphics/SVG/1.1/DTD/svg11.dtd" >
<svg xmlns="http://www.w3.org/2000/svg" xmlns:xlink="http://www.w3.org/1999/xlink" version="1.1">
<metadata></metadata>
<defs>
<font id="mulibold" horiz-adv-x="1228" >
<font-face units-per-em="2048" ascent="1638" descent="-410" />
<missing-glyph horiz-adv-x="561" />
<glyph unicode="&#xfb01;" horiz-adv-x="1282" d="M10 842v192h199v105q0 139 43 220t140 117.5t265 36.5h76v-188h-49q-96 0 -141 -15.5t-61.5 -59.5t-16.5 -140v-76h680v-1034h-256v842h-424v-842h-256v842h-199zM872 1255v258h289v-258h-289z" />
<glyph unicode="&#xfb02;" horiz-adv-x="1286" d="M10 842v192h197v101q0 184 93 283.5t267 99.5q96 0 162 -25v-203q-57 14 -100 15q-166 -1 -166 -183v-88h231v-192h-231v-842h-256v842h-197zM891 0v1507h254v-1507h-254z" />
<glyph horiz-adv-x="0" />
<glyph unicode="&#xd;" horiz-adv-x="561" />
<glyph horiz-adv-x="0" />
<glyph horiz-adv-x="0" />
<glyph unicode=" "  horiz-adv-x="561" />
<glyph unicode="&#x09;" horiz-adv-x="561" />
<glyph unicode="&#xa0;" horiz-adv-x="561" />
<glyph unicode="!" horiz-adv-x="514" d="M96 1460l318 -2l-80 -1020h-156zM113 0v287h286v-287h-286z" />
<glyph unicode="&#x22;" horiz-adv-x="931" d="M100 1458h297l-61 -600h-170zM532 1458h297l-61 -600h-170z" />
<glyph unicode="#" horiz-adv-x="1241" d="M90 354v168h180l86 432h-221v166h254l66 338h178l-66 -338h262l66 338h178l-65 -338h145v-166h-178l-86 -432h217v-168h-250l-70 -354h-178l70 354h-262l-70 -354h-178l70 354h-148zM449 522h262l86 432h-262z" />
<glyph unicode="$" d="M70 156l90 192q178 -139 385 -153v426q-137 35 -231.5 76.5t-158 124.5t-63.5 216q0 111 55.5 202t154.5 151.5t228 76.5v228h209v-226q119 -14 223.5 -57t176.5 -108l-90 -193q-150 123 -324 148v-445q137 -35 227 -75t151.5 -119.5t61.5 -208.5q0 -166 -115.5 -280 t-310.5 -142v-228h-209v224q-137 10 -254.5 53t-205.5 117zM356 1053q0 -72 49.5 -116t139.5 -75v395q-88 -18 -138.5 -71t-50.5 -133zM725 205q86 18 131 68.5t45 129.5q0 63 -45 102.5t-131 65.5v-366z" />
<glyph unicode="%" horiz-adv-x="1955" d="M90 1034q0 217 97.5 331t269.5 114q174 0 272 -114t98 -331q0 -219 -98 -332.5t-272 -113.5q-172 0 -269.5 113.5t-97.5 332.5zM307 1034q0 -147 37 -213.5t113 -66.5q80 0 116.5 65.5t36.5 214.5q0 145 -37.5 212t-115.5 67q-76 0 -113 -66.5t-37 -212.5zM442 0 l844 1458h227l-845 -1458h-226zM1128 434q0 217 97.5 330t271.5 113t271.5 -113t97.5 -332t-97.5 -332.5t-271.5 -113.5t-271.5 113.5t-97.5 334.5zM1346 432q0 -147 36.5 -213.5t114.5 -66.5t115 66.5t37 213.5q0 145 -38 212t-114 67q-78 0 -114.5 -66.5t-36.5 -212.5z " />
<glyph unicode="&#x26;" horiz-adv-x="1409" d="M82 381q0 133 73.5 235.5t235.5 192.5q-82 90 -118.5 166t-36.5 155q0 154 110.5 248.5t288.5 94.5q164 0 262 -86.5t98 -229.5q0 -111 -64.5 -201t-211.5 -176l289 -299q86 174 94 396h217q-14 -319 -160 -551q121 -113 291 -168l-127 -176q-176 61 -303 176 q-190 -174 -438 -174q-147 0 -261 50t-176.5 140t-62.5 207zM332 395q0 -98 69.5 -155.5t188.5 -57.5q160 0 289 119l-359 371q-98 -61 -143 -127t-45 -150zM469 1130q0 -47 25.5 -92t95.5 -123q109 63 152.5 115.5t43.5 116.5q0 68 -40.5 108.5t-108.5 40.5q-76 0 -122 -45 t-46 -121z" />
<glyph unicode="'" horiz-adv-x="499" d="M100 1458h297l-61 -600h-170z" />
<glyph unicode="(" horiz-adv-x="727" d="M209 545q0 240 59.5 460t194.5 453h209q-113 -272 -156 -483t-43 -430q0 -217 43 -429t152 -489h-205q-137 244 -195.5 461t-58.5 457z" />
<glyph unicode=")" horiz-adv-x="727" d="M57 1458h205q135 -233 195.5 -453.5t60.5 -459.5q0 -238 -59.5 -456t-194.5 -462h-205q109 276 152 488.5t43 429.5q0 219 -43 430t-154 483z" />
<glyph unicode="*" horiz-adv-x="935" d="M55 1126l58 172l278 -106l-14 299h180l-14 -297l280 104l56 -172l-289 -77l188 -234l-147 -106l-164 249l-164 -249l-145 106l188 232z" />
<glyph unicode="+" d="M111 500v182h413v414h181v-414h413v-182h-413v-414h-181v414h-413z" />
<glyph unicode="," horiz-adv-x="514" d="M113 0v287h286v-189q0 -109 -36.5 -196.5t-124.5 -175.5l-105 84q96 102 111 190h-131z" />
<glyph unicode="-" horiz-adv-x="897" d="M141 451v204h617v-204h-617z" />
<glyph unicode="." horiz-adv-x="514" d="M113 0v287h286v-287h-286z" />
<glyph unicode="/" horiz-adv-x="645" d="M-51 -121l530 1663h219l-534 -1663h-215z" />
<glyph unicode="0" d="M82 731q0 360 136 551t396 191t396.5 -189.5t136.5 -552.5q0 -365 -136.5 -557t-396.5 -192t-396 191.5t-136 557.5zM344 731q0 -283 64.5 -413t205.5 -130q142 0 206.5 130.5t64.5 412.5q0 279 -64.5 407t-206.5 128q-141 0 -205.5 -128t-64.5 -407z" />
<glyph unicode="1" d="M229 0v215h320v940l-297 -178v235l405 246h154v-1243h317v-215h-899z" />
<glyph unicode="2" horiz-adv-x="1230" d="M102 1307q86 78 221.5 124t272.5 46q219 0 347 -107.5t128 -290.5q0 -125 -54 -235.5t-181 -247.5l-359 -381h647v-215h-979v195l496 534q88 96 129 176t41 158q0 100 -58.5 151.5t-166.5 51.5q-193 0 -396 -152z" />
<glyph unicode="3" d="M80 154l90 192q195 -152 408 -151q139 0 207.5 55t68.5 168q0 111 -69.5 163t-215.5 52h-192v211h158q283 0 282 215q0 100 -61.5 153.5t-171.5 53.5q-197 0 -394 -152l-88 193q88 78 222.5 124t275.5 46q215 0 343 -105.5t128 -281.5q-2 -121 -62.5 -210t-168.5 -130 q129 -35 197.5 -127.5t68.5 -227.5q0 -190 -140.5 -300.5t-377.5 -110.5q-147 0 -283.5 45t-224.5 125z" />
<glyph unicode="4" d="M80 285v196l682 977h211v-966h207v-207h-207v-285h-258v285h-635zM330 492h385v555z" />
<glyph unicode="5" d="M125 154l88 192q199 -152 405 -151q137 0 210 68.5t73 195.5q0 121 -74.5 193.5t-199.5 72.5q-86 0 -162 -31.5t-133 -93.5h-160v858h913v-205h-655v-397q111 76 262 76q137 0 241.5 -58.5t162 -164t57.5 -242.5q0 -143 -65.5 -253t-188.5 -170t-285 -60q-137 0 -270 46 t-219 124z" />
<glyph unicode="6" d="M86 702q0 242 70.5 416t205 266.5t318.5 92.5q131 0 255 -44t216 -126l-90 -193q-193 152 -371 152q-162 0 -250 -137.5t-92 -393.5q47 92 143.5 146.5t213.5 54.5q129 0 230 -59.5t158.5 -166t57.5 -243.5q0 -139 -62.5 -250t-174 -173t-252.5 -62q-276 0 -426 187 t-150 533zM389 459q0 -119 73 -194t187 -75q113 0 181.5 74t68.5 195t-68.5 193.5t-183.5 72.5t-186.5 -73.5t-71.5 -192.5z" />
<glyph unicode="7" d="M106 1243v215h1016v-196l-661 -1262h-283l660 1243h-732z" />
<glyph unicode="8" d="M68 393q0 133 79.5 227.5t221.5 129.5q-123 41 -194 129t-71 204q0 119 66 208t181.5 137.5t262.5 48.5t263 -48.5t181.5 -137.5t65.5 -208t-70.5 -208t-193.5 -125q141 -35 221 -129.5t80 -227.5q0 -125 -68.5 -218t-192.5 -142t-286 -49t-285.5 49t-192 142t-68.5 218z M317 412q0 -106 79 -164t218 -58q140 0 218.5 57.5t78.5 164.5q0 100 -80.5 161.5t-216.5 79.5q-135 -18 -216 -79.5t-81 -161.5zM354 1057q0 -96 71 -156.5t189 -79.5q119 18 189.5 79t70.5 157q0 102 -69.5 157.5t-190.5 55.5q-120 0 -190 -55.5t-70 -157.5z" />
<glyph unicode="9" d="M78 991q0 139 62.5 250t174 173.5t252.5 62.5q277 0 427.5 -187.5t150.5 -533.5q0 -242 -72 -416t-206 -266t-318 -92q-131 0 -255 44t-214 126l88 192q195 -152 371 -151q162 0 251 138t93 396q-47 -94 -142.5 -149.5t-216.5 -55.5q-129 0 -230 59.5t-158.5 166 t-57.5 243.5zM330 999q0 -121 68.5 -193.5t183.5 -72.5q114 0 186 74t72 192q0 119 -72 194t-186 75q-115 0 -183.5 -74t-68.5 -195z" />
<glyph unicode=":" horiz-adv-x="514" d="M113 0v287h286v-287h-286zM113 727v285h286v-285h-286z" />
<glyph unicode=";" horiz-adv-x="514" d="M113 0v287h286v-189q0 -109 -36.5 -196.5t-124.5 -175.5l-105 84q96 102 111 190h-131zM113 727v285h286v-285h-286z" />
<glyph unicode="&#x3c;" d="M111 494v196l1007 426v-196l-782 -328l782 -330v-196z" />
<glyph unicode="=" d="M111 293v182h1007v-182h-1007zM111 707v182h1007v-182h-1007z" />
<glyph unicode="&#x3e;" d="M111 66v196l782 330l-782 328v196l1007 -426v-196z" />
<glyph unicode="?" horiz-adv-x="948" d="M180 1178v217q131 80 305 80q127 0 225.5 -43t153 -119t54.5 -176q0 -109 -50.5 -187t-150.5 -180q-84 -86 -127 -146.5t-53 -136.5l-9 -57h-151v84q0 115 41 193.5t119 171.5q59 70 88.5 121t29.5 114q0 72 -50 112t-138 40q-143 0 -287 -88zM311 0v287h289v-287h-289z " />
<glyph unicode="@" horiz-adv-x="1931" d="M90 555q0 281 117 487.5t320.5 317t461.5 110.5q268 0 460.5 -103t292 -277.5t99.5 -382.5q0 -188 -57.5 -317.5t-153.5 -194t-213 -64.5q-111 0 -176 47t-78 131h-4q-117 -178 -305 -178q-147 0 -232 99.5t-85 269.5q0 145 55 267t154.5 193.5t226.5 71.5 q88 0 155.5 -40t92.5 -107h4l22 127h191l-92 -514q-8 -43 -9 -88q0 -66 28 -95.5t87 -29.5q47 0 95 42t81 136t33 244q0 170 -76 305t-227.5 215t-368.5 80q-203 0 -363.5 -89.5t-252.5 -259.5t-92 -403q0 -215 85 -376t243.5 -249t377.5 -88q162 0 277.5 42t173.5 116h248 q-84 -147 -265.5 -235.5t-433.5 -88.5q-272 0 -475 111t-312.5 309.5t-109.5 458.5zM727 502q0 -100 46 -158.5t122 -58.5q90 0 155.5 55t99.5 143t34 187q0 102 -48.5 155.5t-131.5 53.5q-86 0 -148.5 -55.5t-95.5 -142.5t-33 -179z" />
<glyph unicode="A" horiz-adv-x="1536" d="M0 0l659 1458h215l662 -1458h-264l-146 342h-712l-148 -342h-266zM502 547h536l-268 624z" />
<glyph unicode="B" horiz-adv-x="1413" d="M158 0v1458h641q225 0 354 -101.5t129 -279.5q0 -115 -60.5 -199.5t-166.5 -123.5q127 -37 195.5 -129.5t68.5 -227.5q0 -186 -132 -291.5t-368 -105.5h-661zM416 205h375q143 0 209.5 51t66.5 162q0 113 -66.5 166t-209.5 53h-375v-432zM416 844h340q274 0 274 205 q0 102 -67.5 153t-206.5 51h-340v-409z" />
<glyph unicode="C" horiz-adv-x="1402" d="M111 731q0 225 86 394t246.5 260.5t375.5 91.5q147 0 277.5 -46.5t216.5 -127.5l-86 -193q-98 80 -195.5 116t-208.5 36q-211 0 -326.5 -137.5t-115.5 -393.5q0 -258 114.5 -396t327.5 -138q111 0 208 35.5t196 115.5l86 -192q-86 -82 -216 -128t-278 -46 q-215 0 -375.5 92t-246.5 261t-86 396z" />
<glyph unicode="D" horiz-adv-x="1560" d="M158 0v1458h536q358 0 556 -190.5t198 -536.5q0 -348 -197.5 -539.5t-556.5 -191.5h-536zM422 215h256q504 0 504 516q0 512 -504 512h-256v-1028z" />
<glyph unicode="E" horiz-adv-x="1218" d="M158 0v1458h975v-209h-717v-403h674v-209h-674v-428h717v-209h-975z" />
<glyph unicode="F" horiz-adv-x="1171" d="M158 0v1458h952v-211h-690v-399h649v-213h-649v-635h-262z" />
<glyph unicode="G" horiz-adv-x="1513" d="M111 731q0 229 88 397t250.5 258.5t381.5 90.5q154 0 288 -45.5t224 -126.5l-90 -193q-102 80 -200.5 115t-214.5 35q-225 0 -341 -135.5t-116 -395.5q0 -268 118.5 -404.5t354.5 -136.5q143 0 283 39v369h-316v190h553v-700q-100 -49 -241.5 -77.5t-288.5 -28.5 q-225 0 -391 90t-254 258t-88 401z" />
<glyph unicode="H" horiz-adv-x="1585" d="M158 0v1458h260v-610h747v610h262v-1458h-262v633h-747v-633h-260z" />
<glyph unicode="I" horiz-adv-x="579" d="M158 0v1458h264v-1458h-264z" />
<glyph unicode="J" horiz-adv-x="739" d="M-4 -150q104 -14 147 -14q100 0 137 49t37 176v1397h265v-1397q0 -233 -88 -338.5t-301 -105.5q-98 0 -197 16v217z" />
<glyph unicode="K" horiz-adv-x="1363" d="M158 0v1458h264v-653l651 653h318l-709 -700l741 -758h-323l-678 682v-682h-264z" />
<glyph unicode="L" horiz-adv-x="1146" d="M158 0v1458h264v-1241h682v-217h-946z" />
<glyph unicode="M" horiz-adv-x="1740" d="M162 0v1458h209l501 -1141l498 1141h209v-1458h-233v905l-388 -905h-174l-389 895v-895h-233z" />
<glyph unicode="N" horiz-adv-x="1546" d="M158 0v1458h196l785 -1020v1020h247v-1458h-196l-787 1022v-1022h-245z" />
<glyph unicode="O" horiz-adv-x="1609" d="M111 731q0 227 84 396t240.5 259.5t369.5 90.5t369.5 -90.5t239.5 -259.5t83 -396q0 -229 -84 -398t-239.5 -260t-368.5 -91q-211 0 -367.5 91t-241.5 260t-85 398zM377 731q0 -260 112.5 -399t315.5 -139t315.5 139t112.5 399q0 258 -112.5 396.5t-315.5 138.5 t-315.5 -137.5t-112.5 -397.5z" />
<glyph unicode="P" horiz-adv-x="1363" d="M158 0v1458h633q236 0 366.5 -113.5t130.5 -310.5t-132 -311.5t-365 -114.5h-369v-608h-264zM422 813h338q137 0 207.5 56.5t70.5 162.5q0 109 -69.5 165t-208.5 56h-338v-440z" />
<glyph unicode="Q" horiz-adv-x="1609" d="M111 731q0 227 84 396t240.5 259.5t369.5 90.5t369.5 -90.5t239.5 -259.5t83 -396q0 -250 -99.5 -428t-281.5 -260q45 -80 110.5 -149.5t153.5 -141.5l-178 -143q-98 70 -185 167t-153 208q-18 -2 -59 -2q-211 0 -367.5 91t-241.5 260t-85 398zM377 731 q0 -260 112.5 -399t315.5 -139t315.5 139t112.5 399q0 258 -112.5 396.5t-315.5 138.5t-315.5 -137.5t-112.5 -397.5z" />
<glyph unicode="R" horiz-adv-x="1437" d="M158 0v1458h624q248 0 377 -108.5t129 -311.5q0 -145 -76.5 -246.5t-218.5 -144.5q129 -27 187 -180l178 -467h-279l-186 485q-25 68 -76 94.5t-133 26.5h-264v-606h-262zM416 811h329q150 0 221.5 55.5t71.5 167.5q0 111 -70.5 165t-222.5 54h-329v-442z" />
<glyph unicode="S" horiz-adv-x="1318" d="M88 156l90 192q106 -80 222 -117.5t253 -37.5q152 0 235 53t83 149q0 82 -77 126t-253 83q-274 59 -399 153.5t-125 274.5q0 129 69.5 229.5t197.5 158t296 57.5q154 0 292 -46.5t226 -127.5l-88 -193q-195 156 -430 156q-141 0 -223 -58.5t-82 -158.5q0 -86 72.5 -131.5 t248.5 -83.5q182 -43 297 -93.5t176.5 -129.5t61.5 -197q0 -131 -69.5 -228.5t-201 -150.5t-309.5 -53q-168 0 -314.5 45t-248.5 129z" />
<glyph unicode="T" horiz-adv-x="1267" d="M25 1241v217h1218v-217h-477v-1241h-266v1241h-475z" />
<glyph unicode="U" horiz-adv-x="1515" d="M150 590v868h260v-883q0 -188 88 -285t262 -97q170 0 259 98t89 284v883h260v-868q0 -297 -155.5 -452.5t-452.5 -155.5q-301 0 -455.5 154.5t-154.5 453.5z" />
<glyph unicode="V" horiz-adv-x="1476" d="M-18 1458h274l485 -1126l486 1126h268l-649 -1458h-215z" />
<glyph unicode="W" horiz-adv-x="2293" d="M49 1458h268l365 -1087l379 1087h188l371 -1096l373 1096h254l-516 -1458h-215l-367 1049l-371 -1049h-215z" />
<glyph unicode="X" horiz-adv-x="1374" d="M-18 0l555 743l-537 715h309l377 -522l381 522h307l-538 -717l555 -741h-310l-395 545l-395 -545h-309z" />
<glyph unicode="Y" horiz-adv-x="1288" d="M-80 1458h301l422 -659l424 659h301l-592 -880v-578h-264v578z" />
<glyph unicode="Z" horiz-adv-x="1245" d="M100 0v193l750 1054h-750v211h1049v-190l-754 -1057h776v-211h-1071z" />
<glyph unicode="[" horiz-adv-x="724" d="M219 -373v1831h481v-194h-229v-1442h229v-195h-481z" />
<glyph unicode="\" horiz-adv-x="645" d="M-51 1542h215l532 -1663h-217z" />
<glyph unicode="]" horiz-adv-x="724" d="M25 -178h229v1442h-229v194h481v-1831h-481v195z" />
<glyph unicode="^" d="M88 293l428 1010h197l428 -1010h-199l-328 780l-327 -780h-199z" />
<glyph unicode="_" horiz-adv-x="1034" d="M25 0h985v-154h-985v154z" />
<glyph unicode="`" horiz-adv-x="614" d="M-74 1567h262l205 -422h-166z" />
<glyph unicode="a" horiz-adv-x="1267" d="M82 516q0 160 58.5 284t163 192.5t237.5 68.5q113 0 200.5 -48t135.5 -134v155h251v-1034h-251v166q-47 -86 -135.5 -134t-200.5 -48q-135 0 -239.5 65.5t-162 186t-57.5 280.5zM340 516q0 -160 70.5 -246t199.5 -86q127 0 197 88t70 248q0 164 -70 252t-199 88 q-127 0 -197.5 -91t-70.5 -253z" />
<glyph unicode="b" horiz-adv-x="1269" d="M139 0v1507h254v-628q47 86 135 134t201 48q135 0 238.5 -66.5t161 -187.5t57.5 -281t-58.5 -283.5t-162 -191t-236.5 -67.5q-115 0 -204 49t-134 137v-170h-252zM391 522q0 -164 69.5 -251t201.5 -87q126 0 196 90.5t70 251.5q0 160 -70 247t-199 87t-198.5 -88 t-69.5 -250z" />
<glyph unicode="c" horiz-adv-x="1030" d="M82 516q0 162 66.5 285t188.5 191.5t281 68.5q111 0 214.5 -35t164.5 -96l-71 -180q-66 53 -139.5 80.5t-145.5 27.5q-139 0 -217 -87t-78 -251t77 -250t218 -86q72 0 145.5 29t139.5 82l71 -180q-66 -61 -170 -96t-219 -35q-162 0 -280.5 65.5t-182 185t-63.5 281.5z " />
<glyph unicode="d" horiz-adv-x="1267" d="M82 526q0 160 57.5 281t162 187.5t239.5 66.5q111 0 197.5 -46t133.5 -130v622h256v-1507h-251v166q-47 -86 -135.5 -134t-200.5 -48q-133 0 -237.5 67.5t-163 191.5t-58.5 283zM340 526q0 -162 70.5 -252t197.5 -90t198 88t71 250t-70 250t-197 88q-129 0 -199.5 -87 t-70.5 -247z" />
<glyph unicode="e" horiz-adv-x="1122" d="M82 520q0 158 63.5 281t178 191.5t260.5 68.5q213 0 336.5 -138.5t123.5 -379.5v-39h-712q8 -166 82.5 -245t222.5 -79q170 0 315 111l74 -176q-74 -59 -181.5 -95t-217.5 -36q-254 0 -399.5 143t-145.5 393zM340 641h481q-12 117 -70.5 176.5t-160.5 59.5 q-103 0 -167.5 -60.5t-82.5 -175.5z" />
<glyph unicode="f" horiz-adv-x="751" d="M10 842v192h197v101q0 184 93 283.5t267 99.5q96 0 162 -25v-203q-57 14 -100 15q-166 -1 -166 -183v-88h231v-192h-231v-842h-256v842h-197z" />
<glyph unicode="g" horiz-adv-x="1275" d="M82 545q0 152 58.5 269.5t164 182t240.5 64.5q115 0 204 -48t136 -134v155h254v-1001q0 -242 -133.5 -367t-391.5 -125q-240 0 -421 101l40 194q188 -98 375 -98q276 0 277 274v205q-47 -84 -137.5 -136t-202.5 -52q-135 0 -240.5 64.5t-164 182t-58.5 269.5zM340 545 q0 -147 72.5 -231.5t199.5 -84.5t200 84t73 232q0 147 -72 231t-201 84q-127 0 -199.5 -84t-72.5 -231z" />
<glyph unicode="h" horiz-adv-x="1234" d="M139 0v1507h254v-622q53 84 141.5 130t196.5 46q371 0 371 -426v-635h-256v623q0 123 -47 179t-146 56q-117 0 -188.5 -74.5t-71.5 -197.5v-586h-254z" />
<glyph unicode="i" horiz-adv-x="534" d="M123 1252v252h284v-252h-284zM139 0v1034h254v-1034h-254z" />
<glyph unicode="j" horiz-adv-x="534" d="M-125 -227q55 -17 100 -17q74 0 119 43t45 140v1095h254v-1108q0 -184 -93 -282.5t-265 -98.5q-92 0 -160 23v205zM123 1252v252h284v-252h-284z" />
<glyph unicode="k" horiz-adv-x="1128" d="M139 0v1507h254v-929l426 454h309l-464 -493l501 -539h-319l-453 477v-477h-254z" />
<glyph unicode="l" horiz-adv-x="534" d="M139 0v1507h254v-1507h-254z" />
<glyph unicode="m" horiz-adv-x="1841" d="M123 1034h239l19 -164q45 92 130 141.5t196 49.5q238 0 309 -197q49 92 140 144.5t204 52.5q176 0 262 -105.5t86 -320.5v-635h-256v627q0 123 -40 177t-132 54q-106 0 -166.5 -74.5t-60.5 -205.5v-578h-256v627q0 121 -42 176t-132 55q-106 0 -168 -74.5t-62 -205.5 v-578h-254v741q0 164 -16 293z" />
<glyph unicode="n" horiz-adv-x="1234" d="M123 1034h239l19 -170q53 94 144 145.5t206 51.5q371 0 371 -426v-635h-256v623q0 123 -47 179t-146 56q-117 0 -188.5 -74.5t-71.5 -197.5v-586h-254v741q0 164 -16 293z" />
<glyph unicode="o" horiz-adv-x="1212" d="M82 522q0 164 64.5 286t184.5 187.5t277 65.5q156 0 274.5 -65.5t183 -187.5t64.5 -286t-64.5 -285.5t-183 -187t-274.5 -65.5q-157 0 -277 65.5t-184.5 187t-64.5 285.5zM340 522q0 -168 68.5 -253t197.5 -85q131 0 199.5 85t68.5 253q0 166 -69.5 253t-196.5 87 q-129 0 -198.5 -87t-69.5 -253z" />
<glyph unicode="p" horiz-adv-x="1269" d="M123 1034h239l21 -178q41 96 133 150.5t213 54.5q133 0 236.5 -68.5t162 -192.5t58.5 -284t-57.5 -280.5t-161 -186t-238.5 -65.5q-113 0 -201 48t-135 134v-608h-254v1183q0 164 -16 293zM391 520q0 -162 69.5 -249t198.5 -87t199 86t70 246q0 162 -70 253t-196 91 q-131 0 -201 -88t-70 -252z" />
<glyph unicode="q" horiz-adv-x="1267" d="M82 516q0 160 58.5 284t163 192.5t237.5 68.5q119 0 211 -53.5t135 -149.5l18 176h242q-18 -123 -19 -293v-1183h-256v600q-47 -84 -134 -129t-197 -45q-135 0 -239.5 65.5t-162 186t-57.5 280.5zM340 516q0 -160 70.5 -246t199.5 -86q127 0 197 88t70 248q0 164 -70 252 t-199 88q-127 0 -197.5 -91t-70.5 -253z" />
<glyph unicode="r" horiz-adv-x="802" d="M123 1034h239l21 -182q39 100 123 153.5t190 53.5q60 -1 103 -17l-2 -233q-66 27 -135 27q-131 0 -200 -76t-69 -201v-559h-254v741q0 164 -16 293z" />
<glyph unicode="s" horiz-adv-x="1026" d="M72 115l71 180q166 -123 379 -123q92 0 142.5 30.5t50.5 86.5q0 47 -35 74.5t-119 48.5l-172 39q-283 61 -283 288q0 94 53.5 167t150 114t222.5 41q111 0 213.5 -34t180.5 -97l-76 -174q-155 114 -317 114h-3q-88 0 -137 -32.5t-49 -89.5q0 -45 29.5 -72t101.5 -45 l176 -39q154 -35 224.5 -107.5t70.5 -189.5q0 -143 -114.5 -227t-313.5 -84q-280 0 -446 131z" />
<glyph unicode="t" horiz-adv-x="776" d="M10 842v192h199v252l256 86v-338h274v-192h-274v-463q0 -182 170 -182q47 0 102 16v-203q-65 -24 -157 -24h-7q-176 0 -270 98t-94 283v475h-199z" />
<glyph unicode="u" horiz-adv-x="1220" d="M133 410v624h254v-626q0 -113 46 -166.5t142 -53.5q113 0 180.5 74t67.5 197v575h258v-1034h-250v160q-49 -86 -131 -131t-188 -45q-379 0 -379 426z" />
<glyph unicode="v" horiz-adv-x="1112" d="M-4 1032h268l297 -741l303 741h254l-452 -1032h-224z" />
<glyph unicode="w" horiz-adv-x="1808" d="M20 1034h263l266 -729l268 729h184l269 -735l266 735h250l-406 -1034h-223l-256 678l-250 -678h-225z" />
<glyph unicode="x" horiz-adv-x="1124" d="M-20 0l434 532l-408 502h303l252 -321l252 321h305l-407 -502l434 -532h-305l-279 350l-278 -350h-303z" />
<glyph unicode="y" horiz-adv-x="1112" d="M-4 1034h268l297 -743l303 743h254l-481 -1104q-82 -193 -209 -280.5t-313 -116.5l-58 197q145 33 218 83t118 148l33 76z" />
<glyph unicode="z" horiz-adv-x="1077" d="M100 0v178l572 664h-559v192h864v-174l-574 -665h596v-195h-899z" />
<glyph unicode="{" horiz-adv-x="800" d="M88 483v119l76 23q74 20 102.5 64t28.5 145v296q0 160 93 244t261 84h127v-194h-86q-61 0 -102 -47.5t-41 -133.5v-307q0 -94 -48 -156.5t-116 -76.5q68 -14 116 -77t48 -157v-307q0 -86 41 -133t102 -47h86v-195h-127q-172 0 -263 84t-91 244v297q0 100 -28.5 144 t-102.5 65z" />
<glyph unicode="|" horiz-adv-x="577" d="M168 -373v1831h240v-1831h-240z" />
<glyph unicode="}" horiz-adv-x="800" d="M25 -178h88q59 0 100 47t41 133v307q0 94 48 156.5t116 77.5q-68 14 -116 76.5t-48 156.5v307q0 86 -41 133.5t-100 47.5h-88v194h127q168 0 261 -84t93 -244v-296q0 -100 28.5 -144.5t102.5 -64.5l76 -23v-119l-76 -22q-74 -20 -102.5 -64.5t-28.5 -144.5v-297 q0 -160 -91 -244t-263 -84h-127v195z" />
<glyph unicode="~" d="M111 539q35 100 108.5 157.5t167.5 57.5q63 0 123.5 -22.5t140.5 -63.5q70 -35 105 -49.5t69 -14.5q57 0 94 32t62 95l137 -86q-35 -100 -108.5 -157.5t-167.5 -57.5q-61 0 -120.5 22.5t-143.5 65.5q-70 35 -105 49.5t-70 14.5q-57 0 -94 -33t-61 -98z" />
<glyph unicode="&#xa1;" horiz-adv-x="514" d="M96 -373l82 946h156l80 -944zM113 727v285h286v-285h-286z" />
<glyph unicode="&#xa2;" d="M170 516q0 217 121 362.5t321 176.5v231h209v-235q80 -14 148.5 -45t115.5 -76l-71 -180q-88 70 -193 96v-649q106 27 193 98l71 -180q-96 -88 -264 -121v-238h-209v232q-203 27 -322.5 168t-119.5 360zM434 520q0 -123 46 -203.5t132 -113.5v637q-86 -33 -132 -115 t-46 -205z" />
<glyph unicode="&#xa3;" d="M84 0v178q96 47 134 107.5t38 165.5v196h-172v166h172v256q0 121 55.5 214t156.5 143.5t234 50.5q137 0 260 -44t218 -128l-88 -193q-94 76 -189.5 115t-181.5 39q-98 0 -151.5 -55.5t-53.5 -159.5v-238h348v-166h-348v-155q0 -105 -23.5 -170.5t-82.5 -106.5h755v-215 h-1081z" />
<glyph unicode="&#xa5;" d="M-39 1458h287l366 -547l367 547h287l-443 -639h269v-164h-349v-151h349v-164h-349v-340h-264v340h-346v164h346v151h-346v164h268z" />
<glyph unicode="&#xa7;" horiz-adv-x="1165" d="M72 645q0 82 33.5 154.5t95.5 126.5q-45 72 -45 164q0 176 125 279.5t337 103.5q111 0 209.5 -33t171.5 -92l-71 -174q-147 106 -303 106q-104 0 -161.5 -44t-57.5 -126q0 -59 35.5 -103t115.5 -83l242 -113q154 -72 224.5 -161t70.5 -210q0 -80 -34 -151.5t-95 -124.5 q47 -78 47 -168q0 -180 -120 -281.5t-335 -101.5q-268 0 -434 129l72 180q170 -115 352 -115q98 0 156.5 44.5t58.5 123.5q0 61 -36 104.5t-118 84.5l-243 110q-156 72 -224.5 160t-68.5 211zM303 690q0 -63 44 -114.5t140 -102.5l246 -117q58 -28 101 -59q29 47 28 98 q0 63 -45 116.5t-141 102.5l-244 121q-29 14 -100 58q-29 -47 -29 -103z" />
<glyph unicode="&#xa8;" horiz-adv-x="614" d="M-2 1237v236h245v-236h-245zM376 1237v236h246v-236h-246z" />
<glyph unicode="&#xa9;" horiz-adv-x="1685" d="M104 731q0 207 97.5 375t266.5 265t376 97t376 -97t266 -266t97 -374q0 -207 -97 -376t-267 -267t-375 -98q-207 0 -376 98t-266.5 267t-97.5 376zM225 731q0 -176 80 -319.5t221.5 -225.5t317.5 -82q174 0 315 82t221 225.5t80 319.5q0 174 -80 316.5t-221 224.5 t-315 82q-176 0 -317.5 -82t-221.5 -224.5t-80 -316.5zM430 731q0 203 118 324t320 121q92 0 175 -27t143 -78l-64 -160q-45 37 -104.5 59.5t-118.5 22.5q-111 0 -172 -68.5t-61 -193.5q0 -129 61 -197.5t172 -68.5q59 0 118.5 22.5t104.5 59.5l64 -160q-61 -49 -143 -76.5 t-175 -27.5q-202 0 -320 120.5t-118 327.5z" />
<glyph unicode="&#xaa;" horiz-adv-x="694" d="M43 1028q0 92 78 134t266 42h41v27q0 43 -23.5 61.5t-76.5 18.5q-100 0 -199 -51l-45 149q55 27 123.5 43t142.5 16q144 0 214.5 -65.5t70.5 -206.5v-352h-205v98q-23 -53 -69 -80.5t-105 -27.5q-92 0 -152.5 58t-60.5 136zM240 1038q0 -27 21.5 -45t57.5 -18 q48 0 78.5 29.5t30.5 78.5v21h-20q-98 0 -133 -16.5t-35 -49.5z" />
<glyph unicode="&#xab;" horiz-adv-x="1017" d="M47 547l277 375h219l-267 -373l263 -373h-215zM473 547l277 375h219l-267 -373l263 -373h-215z" />
<glyph unicode="&#xac;" d="M111 711v180h1007v-600h-182v420h-825z" />
<glyph unicode="&#xad;" horiz-adv-x="897" d="M141 451v204h617v-204h-617z" />
<glyph unicode="&#xae;" horiz-adv-x="1685" d="M104 731q0 207 97.5 375t266.5 265t376 97t376 -97t266 -266t97 -374q0 -207 -97 -376t-267 -267t-375 -98q-207 0 -376 98t-266.5 267t-97.5 376zM225 731q0 -176 80 -319.5t221.5 -225.5t317.5 -82q174 0 315 82t221 225.5t80 319.5q0 174 -80 316.5t-221 224.5 t-315 82q-176 0 -317.5 -82t-221.5 -224.5t-80 -316.5zM502 293v874h399q154 0 237 -72.5t83 -197.5q0 -96 -53.5 -164.5t-151.5 -93.5q82 -20 129 -102l135 -244h-256l-150 280q-14 25 -30.5 36.5t-42.5 11.5h-72v-328h-227zM729 784h141q68 0 99.5 23.5t31.5 79.5 q0 57 -31.5 81.5t-99.5 24.5h-141v-209z" />
<glyph unicode="&#xaf;" horiz-adv-x="614" d="M-9 1270v168h637v-168h-637z" />
<glyph unicode="&#xb0;" horiz-adv-x="759" d="M68 1161q0 86 41 157t112.5 110.5t157.5 39.5t157.5 -39.5t112.5 -110.5t41 -157t-41 -156.5t-112.5 -110.5t-157.5 -40t-157.5 40t-112.5 110.5t-41 156.5zM219 1161q0 -74 45 -121t115 -47t116 47t46 121t-46 121t-116 47t-115 -47t-45 -121z" />
<glyph unicode="&#xb1;" d="M111 0v180h1007v-180h-1007zM111 598v180h413v318h181v-318h413v-180h-413v-319h-181v319h-413z" />
<glyph unicode="&#xb4;" horiz-adv-x="614" d="M227 1145l205 422h262l-301 -422h-166z" />
<glyph unicode="&#xb5;" horiz-adv-x="1220" d="M133 -442v1476h254v-626q0 -113 46 -166.5t142 -53.5q113 0 180.5 74t67.5 197v575h258v-1034h-250v160q-49 -86 -131 -131t-188 -45q-68 0 -125 22v-448h-254z" />
<glyph unicode="&#xb6;" horiz-adv-x="1267" d="M76 1022q0 129 55 227.5t155.5 153.5t233.5 55h588v-1831h-182v1667h-230v-1667h-182v957q-131 0 -230.5 55t-153.5 154.5t-54 228.5z" />
<glyph unicode="&#xb7;" horiz-adv-x="514" d="M113 410v286h286v-286h-286z" />
<glyph unicode="&#xb8;" horiz-adv-x="614" d="M104 -367l25 109q88 -29 160 -29q102 0 102 62q0 45 -69 45q-29 0 -82 -15l-39 39l22 197h150l-17 -125q12 2 35 2q74 0 120 -38t46 -105q0 -80 -69.5 -129t-194.5 -49q-45 0 -97.5 9t-91.5 27z" />
<glyph unicode="&#xba;" horiz-adv-x="747" d="M37 1153q0 137 87 226t251 89q162 0 249 -89t87 -226q0 -139 -87 -229t-249 -90q-164 0 -251 90t-87 229zM250 1153q0 -72 32.5 -110.5t92.5 -38.5q59 0 92 38.5t33 110.5t-33 109.5t-92 37.5t-92 -37.5t-33 -109.5z" />
<glyph unicode="&#xbb;" horiz-adv-x="1017" d="M49 922h221l275 -375l-275 -371h-217l264 373zM475 922h221l275 -375l-275 -371h-217l264 373z" />
<glyph unicode="&#xbf;" horiz-adv-x="948" d="M31 -51q0 72 27.5 128t66.5 98t104 97q86 74 129 126.5t54 125.5l8 58h151v-84q0 -111 -42 -181.5t-119 -146.5q-59 -57 -88 -99t-29 -100q0 -68 48 -108.5t138 -40.5q143 0 289 88v-217q-137 -82 -307 -82q-119 0 -217.5 41t-155.5 117.5t-57 179.5zM348 727v285h287 v-285h-287z" />
<glyph unicode="&#xc0;" horiz-adv-x="1536" d="M0 0l659 1458h215l662 -1458h-264l-146 342h-712l-148 -342h-266zM391 1901h248l211 -318h-166zM502 547h536l-268 624z" />
<glyph unicode="&#xc1;" horiz-adv-x="1536" d="M0 0l659 1458h215l662 -1458h-264l-146 342h-712l-148 -342h-266zM502 547h536l-268 624zM684 1583l211 318h248l-293 -318h-166z" />
<glyph unicode="&#xc2;" horiz-adv-x="1536" d="M0 0l659 1458h215l662 -1458h-264l-146 342h-712l-148 -342h-266zM428 1583l262 318h154l262 -318h-203l-135 189l-137 -189h-203zM502 547h536l-268 624z" />
<glyph unicode="&#xc3;" horiz-adv-x="1536" d="M0 0l659 1458h215l662 -1458h-264l-146 342h-712l-148 -342h-266zM418 1610q0 135 57 204.5t152 69.5q39 0 72.5 -14.5t90.5 -46.5q76 -49 117 -49t64.5 28.5t27.5 75.5h117q0 -135 -57.5 -204.5t-151.5 -69.5q-39 0 -72.5 14t-91.5 47q-76 49 -116 49q-41 0 -64.5 -28.5 t-28.5 -75.5h-116zM502 547h536l-268 624z" />
<glyph unicode="&#xc4;" horiz-adv-x="1536" d="M0 0l659 1458h215l662 -1458h-264l-146 342h-712l-148 -342h-266zM455 1626v236h245v-236h-245zM502 547h536l-268 624zM833 1626v236h246v-236h-246z" />
<glyph unicode="&#xc5;" horiz-adv-x="1536" d="M0 0l645 1427q-43 29 -69.5 76t-26.5 103q0 90 64.5 152.5t154.5 62.5q92 0 156.5 -62.5t64.5 -152.5q0 -57 -26.5 -104.5t-73.5 -76.5l647 -1425h-264l-146 342h-712l-148 -342h-266zM502 547h536l-268 624zM674 1606q0 -41 27.5 -70t66.5 -29q41 0 67.5 29t26.5 70 t-26.5 68.5t-67.5 27.5q-39 0 -66.5 -27.5t-27.5 -68.5z" />
<glyph unicode="&#xc6;" horiz-adv-x="2062" d="M-41 0l905 1458h1112v-209h-702l31 -403h628v-209h-612l35 -428h620v-209h-843l-27 342h-657l-203 -342h-287zM569 547h523l-56 702h-49z" />
<glyph unicode="&#xc7;" horiz-adv-x="1402" d="M111 731q0 225 86 394t246.5 260.5t375.5 91.5q147 0 277.5 -46.5t216.5 -127.5l-86 -193q-98 80 -195.5 116t-208.5 36q-211 0 -326.5 -137.5t-115.5 -393.5q0 -258 114.5 -396t327.5 -138q111 0 208 35.5t196 115.5l86 -192q-80 -76 -198 -121t-255 -53l-8 -66 q12 2 35 2q74 0 120 -38t46 -105q0 -80 -70 -129t-195 -49q-45 0 -97 9t-91 27l25 109q88 -29 159 -29q102 0 103 62q0 45 -70 45q-29 0 -82 -15l-39 39l17 144q-184 23 -320.5 120t-209 256.5t-72.5 366.5z" />
<glyph unicode="&#xc8;" horiz-adv-x="1218" d="M158 0v1458h975v-209h-717v-403h674v-209h-674v-428h717v-209h-975zM301 1901h248l211 -318h-166z" />
<glyph unicode="&#xc9;" horiz-adv-x="1218" d="M158 0v1458h975v-209h-717v-403h674v-209h-674v-428h717v-209h-975zM594 1583l211 318h248l-293 -318h-166z" />
<glyph unicode="&#xca;" horiz-adv-x="1218" d="M158 0v1458h975v-209h-717v-403h674v-209h-674v-428h717v-209h-975zM338 1583l262 318h154l262 -318h-203l-135 189l-137 -189h-203z" />
<glyph unicode="&#xcb;" horiz-adv-x="1218" d="M158 0v1458h975v-209h-717v-403h674v-209h-674v-428h717v-209h-975zM365 1626v236h245v-236h-245zM743 1626v236h246v-236h-246z" />
<glyph unicode="&#xcc;" horiz-adv-x="579" d="M-88 1901h248l211 -318h-166zM158 0v1458h264v-1458h-264z" />
<glyph unicode="&#xcd;" horiz-adv-x="579" d="M158 0v1458h264v-1458h-264zM205 1583l211 318h248l-293 -318h-166z" />
<glyph unicode="&#xce;" horiz-adv-x="579" d="M-51 1583l262 318h154l262 -318h-203l-135 189l-137 -189h-203zM158 0v1458h264v-1458h-264z" />
<glyph unicode="&#xcf;" horiz-adv-x="579" d="M-24 1626v236h245v-236h-245zM158 0v1458h264v-1458h-264zM354 1626v236h246v-236h-246z" />
<glyph unicode="&#xd0;" horiz-adv-x="1607" d="M25 635v205h182v618h536q357 0 554.5 -190.5t197.5 -536.5t-197.5 -538.5t-554.5 -192.5h-536v635h-182zM471 215h256q504 0 504 516q0 512 -504 512h-256v-403h389v-205h-389v-420z" />
<glyph unicode="&#xd1;" horiz-adv-x="1546" d="M158 0v1458h196l785 -1020v1020h247v-1458h-196l-787 1022v-1022h-245zM422 1610q0 135 57 204.5t152 69.5q39 0 72.5 -14.5t90.5 -46.5q76 -49 117 -49t64.5 28.5t27.5 75.5h117q0 -135 -57.5 -204.5t-151.5 -69.5q-39 0 -72.5 14t-91.5 47q-76 49 -116 49 q-41 0 -64.5 -28.5t-28.5 -75.5h-116z" />
<glyph unicode="&#xd2;" horiz-adv-x="1609" d="M111 731q0 227 84 396t240.5 259.5t369.5 90.5t369.5 -90.5t239.5 -259.5t83 -396q0 -229 -84 -398t-239.5 -260t-368.5 -91q-211 0 -367.5 91t-241.5 260t-85 398zM377 731q0 -260 112.5 -399t315.5 -139t315.5 139t112.5 399q0 258 -112.5 396.5t-315.5 138.5 t-315.5 -137.5t-112.5 -397.5zM428 1901h248l211 -318h-166z" />
<glyph unicode="&#xd3;" horiz-adv-x="1609" d="M111 731q0 227 84 396t240.5 259.5t369.5 90.5t369.5 -90.5t239.5 -259.5t83 -396q0 -229 -84 -398t-239.5 -260t-368.5 -91q-211 0 -367.5 91t-241.5 260t-85 398zM377 731q0 -260 112.5 -399t315.5 -139t315.5 139t112.5 399q0 258 -112.5 396.5t-315.5 138.5 t-315.5 -137.5t-112.5 -397.5zM721 1583l211 318h248l-293 -318h-166z" />
<glyph unicode="&#xd4;" horiz-adv-x="1609" d="M111 731q0 227 84 396t240.5 259.5t369.5 90.5t369.5 -90.5t239.5 -259.5t83 -396q0 -229 -84 -398t-239.5 -260t-368.5 -91q-211 0 -367.5 91t-241.5 260t-85 398zM377 731q0 -260 112.5 -399t315.5 -139t315.5 139t112.5 399q0 258 -112.5 396.5t-315.5 138.5 t-315.5 -137.5t-112.5 -397.5zM465 1583l262 318h154l262 -318h-203l-135 189l-137 -189h-203z" />
<glyph unicode="&#xd5;" horiz-adv-x="1609" d="M111 731q0 227 84 396t240.5 259.5t369.5 90.5t369.5 -90.5t239.5 -259.5t83 -396q0 -229 -84 -398t-239.5 -260t-368.5 -91q-211 0 -367.5 91t-241.5 260t-85 398zM377 731q0 -260 112.5 -399t315.5 -139t315.5 139t112.5 399q0 258 -112.5 396.5t-315.5 138.5 t-315.5 -137.5t-112.5 -397.5zM455 1610q0 135 57 204.5t152 69.5q39 0 72.5 -14.5t90.5 -46.5q76 -49 117 -49t64.5 28.5t27.5 75.5h117q0 -135 -57.5 -204.5t-151.5 -69.5q-39 0 -72.5 14t-91.5 47q-76 49 -116 49q-41 0 -64.5 -28.5t-28.5 -75.5h-116z" />
<glyph unicode="&#xd6;" horiz-adv-x="1609" d="M111 731q0 227 84 396t240.5 259.5t369.5 90.5t369.5 -90.5t239.5 -259.5t83 -396q0 -229 -84 -398t-239.5 -260t-368.5 -91q-211 0 -367.5 91t-241.5 260t-85 398zM377 731q0 -260 112.5 -399t315.5 -139t315.5 139t112.5 399q0 258 -112.5 396.5t-315.5 138.5 t-315.5 -137.5t-112.5 -397.5zM492 1626v236h245v-236h-245zM870 1626v236h246v-236h-246z" />
<glyph unicode="&#xd8;" horiz-adv-x="1609" d="M111 731q0 227 84 396t240.5 259.5t369.5 90.5q158 0 289 -52l92 156l172 -102l-92 -158q112 -98 171.5 -247.5t59.5 -342.5q0 -229 -84 -398t-239.5 -260t-368.5 -91q-160 0 -289 53l-92 -158l-172 103l92 159q-113 98 -173 249t-60 343zM377 731q0 -238 94 -375 l512 877q-86 33 -178 33q-203 0 -315.5 -137.5t-112.5 -397.5zM627 227q82 -35 178 -34q203 0 315.5 139t112.5 399q0 236 -94 373z" />
<glyph unicode="&#xd9;" horiz-adv-x="1515" d="M150 590v868h260v-883q0 -188 88 -285t262 -97q170 0 259 98t89 284v883h260v-868q0 -297 -155.5 -452.5t-452.5 -155.5q-301 0 -455.5 154.5t-154.5 453.5zM383 1901h248l211 -318h-166z" />
<glyph unicode="&#xda;" horiz-adv-x="1515" d="M150 590v868h260v-883q0 -188 88 -285t262 -97q170 0 259 98t89 284v883h260v-868q0 -297 -155.5 -452.5t-452.5 -155.5q-301 0 -455.5 154.5t-154.5 453.5zM676 1583l211 318h248l-293 -318h-166z" />
<glyph unicode="&#xdb;" horiz-adv-x="1515" d="M150 590v868h260v-883q0 -188 88 -285t262 -97q170 0 259 98t89 284v883h260v-868q0 -297 -155.5 -452.5t-452.5 -155.5q-301 0 -455.5 154.5t-154.5 453.5zM420 1583l262 318h154l262 -318h-203l-135 189l-137 -189h-203z" />
<glyph unicode="&#xdc;" horiz-adv-x="1515" d="M150 590v868h260v-883q0 -188 88 -285t262 -97q170 0 259 98t89 284v883h260v-868q0 -297 -155.5 -452.5t-452.5 -155.5q-301 0 -455.5 154.5t-154.5 453.5zM447 1626v236h245v-236h-245zM825 1626v236h246v-236h-246z" />
<glyph unicode="&#xdd;" horiz-adv-x="1288" d="M-80 1458h301l422 -659l424 659h301l-592 -880v-578h-264v578zM559 1583l211 318h248l-293 -318h-166z" />
<glyph unicode="&#xde;" horiz-adv-x="1366" d="M158 0v1458h260v-303h383q231 0 359 -108.5t128 -303.5q0 -197 -130 -306t-357 -109h-383v-328h-260zM418 535h344q141 0 208.5 50t67.5 158q0 106 -67.5 155.5t-208.5 49.5h-344v-413z" />
<glyph unicode="&#xdf;" horiz-adv-x="1378" d="M139 0v971q0 270 141.5 410.5t407.5 140.5q215 0 337 -96.5t122 -270.5q0 -127 -65.5 -222t-231.5 -165q248 -63 362.5 -168.5t114.5 -269.5q0 -158 -113.5 -252t-306.5 -94q-121 0 -226.5 33.5t-176.5 97.5l74 184q154 -121 329 -121q90 0 136.5 43t46.5 119 q0 98 -112 173t-374 140v191q168 57 235.5 128.5t67.5 172.5q0 92 -56 140t-161 48q-145 0 -221 -82t-76 -245v-1006h-254z" />
<glyph unicode="&#xe0;" horiz-adv-x="1267" d="M82 516q0 160 58.5 284t163 192.5t237.5 68.5q113 0 200.5 -48t135.5 -134v155h251v-1034h-251v166q-47 -86 -135.5 -134t-200.5 -48q-135 0 -239.5 65.5t-162 186t-57.5 280.5zM248 1590h262l205 -422h-166zM340 516q0 -160 70.5 -246t199.5 -86q127 0 197 88t70 248 q0 164 -70 252t-199 88q-127 0 -197.5 -91t-70.5 -253z" />
<glyph unicode="&#xe1;" horiz-adv-x="1267" d="M82 516q0 160 58.5 284t163 192.5t237.5 68.5q113 0 200.5 -48t135.5 -134v155h251v-1034h-251v166q-47 -86 -135.5 -134t-200.5 -48q-135 0 -239.5 65.5t-162 186t-57.5 280.5zM340 516q0 -160 70.5 -246t199.5 -86q127 0 197 88t70 248q0 164 -70 252t-199 88 q-127 0 -197.5 -91t-70.5 -253zM549 1168l205 422h262l-301 -422h-166z" />
<glyph unicode="&#xe2;" horiz-adv-x="1267" d="M82 516q0 160 58.5 284t163 192.5t237.5 68.5q113 0 200.5 -48t135.5 -134v155h251v-1034h-251v166q-47 -86 -135.5 -134t-200.5 -48q-135 0 -239.5 65.5t-162 186t-57.5 280.5zM293 1168l258 422h162l258 -422h-209l-129 262l-131 -262h-209zM340 516q0 -160 70.5 -246 t199.5 -86q127 0 197 88t70 248q0 164 -70 252t-199 88q-127 0 -197.5 -91t-70.5 -253z" />
<glyph unicode="&#xe3;" horiz-adv-x="1267" d="M82 516q0 160 58.5 284t163 192.5t237.5 68.5q113 0 200.5 -48t135.5 -134v155h251v-1034h-251v166q-47 -86 -135.5 -134t-200.5 -48q-135 0 -239.5 65.5t-162 186t-57.5 280.5zM283 1246q0 135 57 205.5t152 70.5q39 0 74.5 -15.5t88.5 -47.5q41 -25 68 -37.5t49 -12.5 q41 0 64.5 30t27.5 77h117q0 -135 -57.5 -205.5t-151.5 -70.5q-39 0 -72.5 14t-91.5 47q-76 49 -116 49q-41 0 -64.5 -28.5t-28.5 -75.5h-116zM340 516q0 -160 70.5 -246t199.5 -86q127 0 197 88t70 248q0 164 -70 252t-199 88q-127 0 -197.5 -91t-70.5 -253z" />
<glyph unicode="&#xe4;" horiz-adv-x="1267" d="M82 516q0 160 58.5 284t163 192.5t237.5 68.5q113 0 200.5 -48t135.5 -134v155h251v-1034h-251v166q-47 -86 -135.5 -134t-200.5 -48q-135 0 -239.5 65.5t-162 186t-57.5 280.5zM320 1260v236h245v-236h-245zM340 516q0 -160 70.5 -246t199.5 -86q127 0 197 88t70 248 q0 164 -70 252t-199 88q-127 0 -197.5 -91t-70.5 -253zM698 1260v236h246v-236h-246z" />
<glyph unicode="&#xe5;" horiz-adv-x="1267" d="M82 516q0 160 58.5 284t163 192.5t237.5 68.5q113 0 200.5 -48t135.5 -134v155h251v-1034h-251v166q-47 -86 -135.5 -134t-200.5 -48q-135 0 -239.5 65.5t-162 186t-57.5 280.5zM340 516q0 -160 70.5 -246t199.5 -86q127 0 197 88t70 248q0 164 -70 252t-199 88 q-127 0 -197.5 -91t-70.5 -253zM412 1381q0 88 64.5 150.5t156.5 62.5q90 0 154.5 -62.5t64.5 -150.5q0 -92 -63.5 -154.5t-155.5 -62.5t-156.5 62.5t-64.5 154.5zM539 1381q0 -43 26.5 -72t67.5 -29q39 0 65.5 29t26.5 72q0 41 -26.5 68.5t-65.5 27.5q-41 0 -67.5 -27.5 t-26.5 -68.5z" />
<glyph unicode="&#xe6;" horiz-adv-x="1785" d="M98 317q0 115 58.5 185.5t186.5 104.5t341 34h78v16q0 109 -44 157t-147 48q-180 0 -358 -106l-72 176q84 57 207 93t234 36q246 0 340 -152q63 74 152 113t196 39q131 0 229 -64.5t152.5 -182.5t54.5 -273v-37h-698q4 -154 78.5 -239t222.5 -85q78 0 156.5 29t150.5 82 l72 -176q-70 -59 -177.5 -95t-214.5 -36q-152 0 -261 58t-171 171q-45 -111 -140 -170t-224 -59q-115 0 -206 42t-143.5 117.5t-52.5 173.5zM350 330q0 -74 50.5 -118t129.5 -44q107 0 169.5 73.5t62.5 190.5v74h-66q-188 0 -267 -42t-79 -134zM1018 641h467 q-10 115 -67.5 175.5t-153.5 60.5q-203 0 -246 -236z" />
<glyph unicode="&#xe7;" horiz-adv-x="1030" d="M82 516q0 162 66.5 285t188.5 191.5t281 68.5q111 0 214.5 -35t164.5 -96l-71 -180q-66 53 -139.5 80.5t-145.5 27.5q-139 0 -217 -87t-78 -251t77 -250t218 -86q72 0 145.5 29t139.5 82l71 -180q-59 -58 -152 -91.5t-198 -37.5l-8 -70q12 2 35 2q74 0 120 -38t46 -105 q0 -80 -70 -129t-195 -49q-45 0 -97 9t-91 27l25 109q88 -29 159 -29q102 0 103 62q0 45 -70 45q-29 0 -82 -15l-39 39l17 148q-197 31 -307.5 170t-110.5 354z" />
<glyph unicode="&#xe8;" horiz-adv-x="1122" d="M82 520q0 158 63.5 281t178 191.5t260.5 68.5q213 0 336.5 -138.5t123.5 -379.5v-39h-712q8 -166 82.5 -245t222.5 -79q170 0 315 111l74 -176q-74 -59 -181.5 -95t-217.5 -36q-254 0 -399.5 143t-145.5 393zM199 1590h262l205 -422h-166zM340 641h481 q-12 117 -70.5 176.5t-160.5 59.5q-103 0 -167.5 -60.5t-82.5 -175.5z" />
<glyph unicode="&#xe9;" horiz-adv-x="1122" d="M82 520q0 158 63.5 281t178 191.5t260.5 68.5q213 0 336.5 -138.5t123.5 -379.5v-39h-712q8 -166 82.5 -245t222.5 -79q170 0 315 111l74 -176q-74 -59 -181.5 -95t-217.5 -36q-254 0 -399.5 143t-145.5 393zM340 641h481q-12 117 -70.5 176.5t-160.5 59.5 q-103 0 -167.5 -60.5t-82.5 -175.5zM500 1168l205 422h262l-301 -422h-166z" />
<glyph unicode="&#xea;" horiz-adv-x="1122" d="M82 520q0 158 63.5 281t178 191.5t260.5 68.5q213 0 336.5 -138.5t123.5 -379.5v-39h-712q8 -166 82.5 -245t222.5 -79q170 0 315 111l74 -176q-74 -59 -181.5 -95t-217.5 -36q-254 0 -399.5 143t-145.5 393zM244 1168l258 422h162l258 -422h-209l-129 262l-131 -262 h-209zM340 641h481q-12 117 -70.5 176.5t-160.5 59.5q-103 0 -167.5 -60.5t-82.5 -175.5z" />
<glyph unicode="&#xeb;" horiz-adv-x="1122" d="M82 520q0 158 63.5 281t178 191.5t260.5 68.5q213 0 336.5 -138.5t123.5 -379.5v-39h-712q8 -166 82.5 -245t222.5 -79q170 0 315 111l74 -176q-74 -59 -181.5 -95t-217.5 -36q-254 0 -399.5 143t-145.5 393zM271 1260v236h245v-236h-245zM340 641h481 q-12 117 -70.5 176.5t-160.5 59.5q-103 0 -167.5 -60.5t-82.5 -175.5zM649 1260v236h246v-236h-246z" />
<glyph unicode="&#xec;" horiz-adv-x="534" d="M-119 1590h262l205 -422h-166zM139 0v1034h254v-1034h-254z" />
<glyph unicode="&#xed;" horiz-adv-x="534" d="M139 0v1034h254v-1034h-254zM182 1168l205 422h262l-301 -422h-166z" />
<glyph unicode="&#xee;" horiz-adv-x="534" d="M-74 1168l258 422h162l258 -422h-209l-129 262l-131 -262h-209zM139 0v1034h254v-1034h-254z" />
<glyph unicode="&#xef;" horiz-adv-x="534" d="M-47 1260v236h245v-236h-245zM139 0v1034h254v-1034h-254zM331 1260v236h246v-236h-246z" />
<glyph unicode="&#xf0;" horiz-adv-x="1226" d="M82 475q0 143 62.5 254t175 172.5t258.5 61.5q199 0 303 -115q-43 174 -162 293l-354 -109l-39 139l256 78q-117 70 -263 99l60 180q264 -49 448 -203l269 82l37 -139l-191 -60q98 -121 149.5 -271.5t51.5 -315.5q0 -307 -141.5 -472t-403.5 -165q-152 0 -269.5 61 t-182 173t-64.5 257zM340 475q0 -143 67.5 -217t198.5 -74q127 0 197.5 76t70.5 215q0 141 -69.5 217t-196.5 76q-131 0 -199.5 -76t-68.5 -217z" />
<glyph unicode="&#xf1;" horiz-adv-x="1234" d="M123 1034h239l19 -170q53 94 144 145.5t206 51.5q371 0 371 -426v-635h-256v623q0 123 -47 179t-146 56q-117 0 -188.5 -74.5t-71.5 -197.5v-586h-254v741q0 164 -16 293zM269 1246q0 135 57 205.5t152 70.5q39 0 74.5 -15.5t88.5 -47.5q41 -25 68 -37.5t49 -12.5 q41 0 64.5 30t27.5 77h117q0 -135 -57.5 -205.5t-151.5 -70.5q-39 0 -72.5 14t-91.5 47q-76 49 -116 49q-41 0 -64.5 -28.5t-28.5 -75.5h-116z" />
<glyph unicode="&#xf2;" horiz-adv-x="1212" d="M82 522q0 164 64.5 286t184.5 187.5t277 65.5q156 0 274.5 -65.5t183 -187.5t64.5 -286t-64.5 -285.5t-183 -187t-274.5 -65.5q-157 0 -277 65.5t-184.5 187t-64.5 285.5zM223 1590h262l205 -422h-166zM340 522q0 -168 68.5 -253t197.5 -85q131 0 199.5 85t68.5 253 q0 166 -69.5 253t-196.5 87q-129 0 -198.5 -87t-69.5 -253z" />
<glyph unicode="&#xf3;" horiz-adv-x="1212" d="M82 522q0 164 64.5 286t184.5 187.5t277 65.5q156 0 274.5 -65.5t183 -187.5t64.5 -286t-64.5 -285.5t-183 -187t-274.5 -65.5q-157 0 -277 65.5t-184.5 187t-64.5 285.5zM340 522q0 -168 68.5 -253t197.5 -85q131 0 199.5 85t68.5 253q0 166 -69.5 253t-196.5 87 q-129 0 -198.5 -87t-69.5 -253zM524 1168l205 422h262l-301 -422h-166z" />
<glyph unicode="&#xf4;" horiz-adv-x="1212" d="M82 522q0 164 64.5 286t184.5 187.5t277 65.5q156 0 274.5 -65.5t183 -187.5t64.5 -286t-64.5 -285.5t-183 -187t-274.5 -65.5q-157 0 -277 65.5t-184.5 187t-64.5 285.5zM268 1168l258 422h162l258 -422h-209l-129 262l-131 -262h-209zM340 522q0 -168 68.5 -253 t197.5 -85q131 0 199.5 85t68.5 253q0 166 -69.5 253t-196.5 87q-129 0 -198.5 -87t-69.5 -253z" />
<glyph unicode="&#xf5;" horiz-adv-x="1212" d="M82 522q0 164 64.5 286t184.5 187.5t277 65.5q156 0 274.5 -65.5t183 -187.5t64.5 -286t-64.5 -285.5t-183 -187t-274.5 -65.5q-157 0 -277 65.5t-184.5 187t-64.5 285.5zM258 1246q0 135 57 205.5t152 70.5q39 0 74.5 -15.5t88.5 -47.5q41 -25 68 -37.5t49 -12.5 q41 0 64.5 30t27.5 77h117q0 -135 -57.5 -205.5t-151.5 -70.5q-39 0 -72.5 14t-91.5 47q-76 49 -116 49q-41 0 -64.5 -28.5t-28.5 -75.5h-116zM340 522q0 -168 68.5 -253t197.5 -85q131 0 199.5 85t68.5 253q0 166 -69.5 253t-196.5 87q-129 0 -198.5 -87t-69.5 -253z" />
<glyph unicode="&#xf6;" horiz-adv-x="1212" d="M82 522q0 164 64.5 286t184.5 187.5t277 65.5q156 0 274.5 -65.5t183 -187.5t64.5 -286t-64.5 -285.5t-183 -187t-274.5 -65.5q-157 0 -277 65.5t-184.5 187t-64.5 285.5zM295 1260v236h245v-236h-245zM340 522q0 -168 68.5 -253t197.5 -85q131 0 199.5 85t68.5 253 q0 166 -69.5 253t-196.5 87q-129 0 -198.5 -87t-69.5 -253zM673 1260v236h246v-236h-246z" />
<glyph unicode="&#xf7;" d="M111 500v182h1007v-182h-1007zM489 70v229h226v-229h-226zM489 877v227h226v-227h-226z" />
<glyph unicode="&#xf8;" horiz-adv-x="1212" d="M82 522q0 164 64.5 286t184.5 187.5t277 65.5q111 0 205 -35l78 133l131 -74l-78 -131q90 -71 138 -181.5t48 -250.5q0 -164 -64.5 -285.5t-183 -187t-274.5 -65.5q-111 0 -209 34l-77 -135l-129 76l75 131q-90 70 -138 180.5t-48 251.5zM334 522q0 -145 53 -229l322 553 q-49 16 -101 16q-133 0 -203.5 -86t-70.5 -254zM504 197q43 -14 102 -15q133 0 203 85t70 255q0 141 -52 228z" />
<glyph unicode="&#xf9;" horiz-adv-x="1220" d="M133 410v624h254v-626q0 -113 46 -166.5t142 -53.5q113 0 180.5 74t67.5 197v575h258v-1034h-250v160q-49 -86 -131 -131t-188 -45q-379 0 -379 426zM223 1590h262l205 -422h-166z" />
<glyph unicode="&#xfa;" horiz-adv-x="1220" d="M133 410v624h254v-626q0 -113 46 -166.5t142 -53.5q113 0 180.5 74t67.5 197v575h258v-1034h-250v160q-49 -86 -131 -131t-188 -45q-379 0 -379 426zM524 1168l205 422h262l-301 -422h-166z" />
<glyph unicode="&#xfb;" horiz-adv-x="1220" d="M133 410v624h254v-626q0 -113 46 -166.5t142 -53.5q113 0 180.5 74t67.5 197v575h258v-1034h-250v160q-49 -86 -131 -131t-188 -45q-379 0 -379 426zM268 1168l258 422h162l258 -422h-209l-129 262l-131 -262h-209z" />
<glyph unicode="&#xfc;" horiz-adv-x="1220" d="M133 410v624h254v-626q0 -113 46 -166.5t142 -53.5q113 0 180.5 74t67.5 197v575h258v-1034h-250v160q-49 -86 -131 -131t-188 -45q-379 0 -379 426zM295 1260v236h245v-236h-245zM673 1260v236h246v-236h-246z" />
<glyph unicode="&#xfd;" horiz-adv-x="1112" d="M-4 1034h268l297 -743l303 743h254l-481 -1104q-82 -193 -209 -280.5t-313 -116.5l-58 197q145 33 218 83t118 148l33 76zM473 1168l205 422h262l-301 -422h-166z" />
<glyph unicode="&#xfe;" horiz-adv-x="1269" d="M139 -442v1949h254v-628q47 86 135 134t201 48q133 0 236.5 -67.5t162 -191.5t58.5 -286t-58.5 -281.5t-162 -185t-236.5 -65.5q-113 0 -201 48t-135 134v-608h-254zM391 520q0 -162 69.5 -249t198.5 -87t199 86t70 246q0 162 -70 253t-196 91q-131 0 -201 -88t-70 -252z " />
<glyph unicode="&#xff;" horiz-adv-x="1112" d="M-4 1034h268l297 -743l303 743h254l-481 -1104q-82 -193 -209 -280.5t-313 -116.5l-58 197q145 33 218 83t118 148l33 76zM244 1260v236h245v-236h-245zM622 1260v236h246v-236h-246z" />
<glyph unicode="&#x131;" horiz-adv-x="534" d="M139 0v1034h254v-1034h-254z" />
<glyph unicode="&#x152;" horiz-adv-x="2160" d="M111 731q0 219 84 389t235.5 263.5t347.5 93.5q213 0 338 -99v80h959v-209h-715v-403h674v-209h-674v-428h715v-209h-959v82q-129 -100 -338 -100q-197 0 -348 94t-235 264t-84 391zM377 731q0 -258 112.5 -398t315.5 -140q184 0 295 86v901q-111 86 -295 86 q-205 0 -316.5 -139.5t-111.5 -395.5z" />
<glyph unicode="&#x153;" horiz-adv-x="1906" d="M82 522q0 162 64.5 284t182 188.5t273.5 66.5q133 0 234.5 -51.5t164.5 -149.5q61 96 161 148.5t227 52.5q131 0 230 -64.5t153.5 -181.5t54.5 -272v-72h-699q14 -150 84 -220.5t203 -70.5q174 0 320 111l75 -176q-72 -59 -180 -95t-217 -36q-139 0 -243.5 51t-168.5 149 q-63 -98 -164.5 -149t-234.5 -51q-156 0 -273.5 66.5t-182 188t-64.5 283.5zM340 522q0 -168 67.5 -253t196.5 -85t196.5 85t67.5 253q0 166 -68.5 253t-195.5 87t-195.5 -87t-68.5 -253zM1130 610h478q-6 131 -64.5 199t-161.5 68q-108 0 -173.5 -70t-78.5 -197z" />
<glyph unicode="&#x178;" horiz-adv-x="1288" d="M-80 1458h301l422 -659l424 659h301l-592 -880v-578h-264v578zM330 1626v236h245v-236h-245zM708 1626v236h246v-236h-246z" />
<glyph unicode="&#x192;" d="M61 -180h129q147 0 181 180l184 860h-236v160h271l14 72q41 195 155.5 285.5t272.5 90.5h135v-204h-131q-145 -1 -180 -181l-14 -63h237v-160h-270l-184 -868q-41 -195 -157 -285t-273 -90h-134v203z" />
<glyph unicode="&#x2c6;" horiz-adv-x="614" d="M-29 1145l258 422h162l258 -422h-209l-129 262l-131 -262h-209z" />
<glyph unicode="&#x2c7;" horiz-adv-x="614" d="M-29 1567h209l131 -262l129 262h209l-258 -422h-162z" />
<glyph unicode="&#x2d8;" horiz-adv-x="614" d="M-58 1481l129 57q88 -172 240 -172q150 0 237 172l129 -55q-39 -141 -139 -213t-227 -72t-228.5 70.5t-140.5 212.5z" />
<glyph unicode="&#x2d9;" horiz-adv-x="614" d="M168 1229v252h284v-252h-284z" />
<glyph unicode="&#x2da;" horiz-adv-x="614" d="M90 1358q0 88 64.5 150.5t156.5 62.5q90 0 154.5 -62.5t64.5 -150.5q0 -92 -63.5 -154.5t-155.5 -62.5t-156.5 62.5t-64.5 154.5zM217 1358q0 -43 26.5 -72t67.5 -29q39 0 65.5 29t26.5 72q0 41 -26.5 68.5t-65.5 27.5q-41 0 -67.5 -27.5t-26.5 -68.5z" />
<glyph unicode="&#x2db;" horiz-adv-x="614" d="M-21 -180q0 104 77 178t222 92l33 -70q-158 -39 -158 -165q0 -57 34 -87t93 -30q53 0 115 29l35 -127q-90 -43 -197 -43q-111 0 -182.5 61t-71.5 162z" />
<glyph unicode="&#x2dc;" horiz-adv-x="614" d="M-39 1223q0 135 57 205.5t152 70.5q39 0 74.5 -15.5t88.5 -47.5q41 -25 68 -37.5t49 -12.5q41 0 64.5 30t27.5 77h117q0 -135 -57.5 -205.5t-151.5 -70.5q-39 0 -72.5 14t-91.5 47q-76 49 -116 49q-41 0 -64.5 -28.5t-28.5 -75.5h-116z" />
<glyph unicode="&#x2dd;" horiz-adv-x="614" d="M116 1145l80 422h197l-162 -422h-115zM389 1145l80 422h196l-162 -422h-114z" />
<glyph unicode="&#x3a9;" horiz-adv-x="1652" d="M102 848q0 190 90.5 332.5t254 219.5t380.5 77t381 -78t253 -219.5t89 -331.5q0 -340 -338 -633h314v-215h-576v207q170 154 252 310.5t82 324.5q0 199 -121 311.5t-336 112.5q-217 0 -337.5 -112t-120.5 -312q0 -168 83 -325t253 -310v-207h-576v215h311 q-338 289 -338 633z" />
<glyph unicode="&#x3c0;" horiz-adv-x="1265" d="M8 842v192h1184v-192h-231v-465q0 -96 45 -142.5t145 -52.5l104 -10l-20 -188l-98 6q-231 14 -331.5 113.5t-100.5 314.5v424h-230q-4 -233 -35.5 -435t-105.5 -407l-264 -2q68 221 104.5 424t44.5 420h-211z" />
<glyph unicode="&#x2000;" horiz-adv-x="950" />
<glyph unicode="&#x2001;" horiz-adv-x="1901" />
<glyph unicode="&#x2002;" horiz-adv-x="950" />
<glyph unicode="&#x2003;" horiz-adv-x="1901" />
<glyph unicode="&#x2004;" horiz-adv-x="633" />
<glyph unicode="&#x2005;" horiz-adv-x="475" />
<glyph unicode="&#x2006;" horiz-adv-x="316" />
<glyph unicode="&#x2007;" horiz-adv-x="316" />
<glyph unicode="&#x2008;" horiz-adv-x="237" />
<glyph unicode="&#x2009;" horiz-adv-x="380" />
<glyph unicode="&#x200a;" horiz-adv-x="105" />
<glyph unicode="&#x2010;" horiz-adv-x="897" d="M141 451v204h617v-204h-617z" />
<glyph unicode="&#x2011;" horiz-adv-x="897" d="M141 451v204h617v-204h-617z" />
<glyph unicode="&#x2012;" horiz-adv-x="897" d="M141 451v204h617v-204h-617z" />
<glyph unicode="&#x2013;" horiz-adv-x="1034" d="M0 475v154h1034v-154h-1034z" />
<glyph unicode="&#x2014;" horiz-adv-x="2068" d="M0 475v154h2068v-154h-2068z" />
<glyph unicode="&#x2018;" horiz-adv-x="514" d="M113 913v189q0 106 36.5 194t124.5 177l107 -82q-49 -55 -77 -100.5t-36 -92.5h131v-285h-286z" />
<glyph unicode="&#x2019;" horiz-adv-x="514" d="M113 1171v287h286v-188q0 -109 -36.5 -196t-124.5 -175l-105 82q92 98 111 190h-131z" />
<glyph unicode="&#x201a;" horiz-adv-x="514" d="M113 0v287h286v-189q0 -109 -36.5 -196.5t-124.5 -175.5l-105 84q96 102 111 190h-131z" />
<glyph unicode="&#x201c;" horiz-adv-x="909" d="M113 913v189q0 106 36.5 194t124.5 177l107 -82q-49 -55 -77 -100.5t-36 -92.5h131v-285h-286zM508 913v189q0 106 36.5 194t124.5 177l107 -82q-49 -55 -77 -100.5t-36 -92.5h131v-285h-286z" />
<glyph unicode="&#x201d;" horiz-adv-x="909" d="M113 1171v287h286v-188q0 -109 -36.5 -196t-124.5 -175l-105 82q92 98 111 190h-131zM508 1171v287h286v-188q0 -109 -36.5 -196t-124.5 -175l-105 82q92 98 111 190h-131z" />
<glyph unicode="&#x201e;" horiz-adv-x="909" d="M113 0v287h286v-189q0 -109 -36.5 -196.5t-124.5 -175.5l-105 84q96 102 111 190h-131zM508 0v287h286v-189q0 -109 -36.5 -196.5t-124.5 -175.5l-105 84q96 102 111 190h-131z" />
<glyph unicode="&#x2020;" horiz-adv-x="714" d="M41 1065v162h221v248h189v-248h221v-162h-221v-723h-189v723h-221z" />
<glyph unicode="&#x2021;" horiz-adv-x="714" d="M41 588v162h221v315h-221v164h221v246h189v-246h221v-164h-221v-315h221v-162h-221v-248h-189v248h-221z" />
<glyph unicode="&#x2022;" horiz-adv-x="1083" d="M168 549q0 94 49 179t135 136t191 51q98 0 184 -48t137 -132t51 -186q0 -100 -50 -184t-136 -133.5t-186 -49.5q-101 0 -187 48.5t-137 133.5t-51 185z" />
<glyph unicode="&#x2026;" horiz-adv-x="1540" d="M113 0v287h286v-287h-286zM627 0v287h286v-287h-286zM1139 0v287h286v-287h-286z" />
<glyph unicode="&#x202f;" horiz-adv-x="380" />
<glyph unicode="&#x2030;" horiz-adv-x="2779" d="M90 1034q0 217 97.5 331t269.5 114q174 0 272 -114t98 -331q0 -219 -98 -332.5t-272 -113.5q-172 0 -269.5 113.5t-97.5 332.5zM307 1034q0 -147 37 -213.5t113 -66.5q80 0 116.5 65.5t36.5 214.5q0 145 -37.5 212t-115.5 67q-76 0 -113 -66.5t-37 -212.5zM442 0 l844 1458h227l-845 -1458h-226zM1128 434q0 217 97.5 330t271.5 113t271.5 -113t97.5 -332t-97.5 -332.5t-271.5 -113.5t-271.5 113.5t-97.5 334.5zM1346 432q0 -147 36.5 -213.5t114.5 -66.5t115 66.5t37 213.5q0 145 -38 212t-114 67q-78 0 -114.5 -66.5t-36.5 -212.5z M1954 434q0 217 97 330t269 113q174 0 271.5 -113t97.5 -332t-97.5 -332.5t-271.5 -113.5q-172 0 -269 114.5t-97 333.5zM2171 432q0 -150 36 -215t113 -65q80 0 116 65.5t36 214.5q0 145 -37 212t-115 67t-113.5 -66.5t-35.5 -212.5z" />
<glyph unicode="&#x2039;" horiz-adv-x="591" d="M47 547l277 375h219l-267 -373l263 -373h-215z" />
<glyph unicode="&#x203a;" horiz-adv-x="591" d="M49 922h221l275 -375l-275 -371h-217l264 373z" />
<glyph unicode="&#x2044;" horiz-adv-x="393" d="M-317 41l856 1475l170 -99l-854 -1474z" />
<glyph unicode="&#x205f;" horiz-adv-x="475" />
<glyph unicode="&#x20ac;" d="M33 489v164h176q-2 25 -2 78q0 51 2 76h-176v164h194q47 242 185.5 374t349.5 132q121 0 238.5 -46.5t201.5 -127.5l-90 -193q-94 80 -175 117t-165 37q-115 0 -185.5 -72t-97.5 -221h326v-164h-342q-2 -25 -2 -76q0 -53 2 -78h342v-164h-326q27 -150 97.5 -222 t185.5 -72q84 0 165 36.5t175 116.5l90 -192q-82 -80 -201.5 -127t-238.5 -47q-211 0 -349.5 132t-185.5 375h-194z" />
<glyph unicode="&#x2122;" horiz-adv-x="1931" d="M25 1268v190h749v-190h-258v-680h-235v680h-256zM899 588v870h184l260 -497l263 497h176v-870h-203v461l-164 -312h-147l-162 301v-450h-207z" />
<glyph unicode="&#x2202;" d="M70 508q0 162 62.5 286t171 191.5t241.5 67.5q209 0 311 -144q-23 244 -155 360.5t-349 116.5h-82v193q82 12 162 12q203 0 359.5 -98t245.5 -299t89 -496q0 -365 -140 -548t-396 -183q-154 0 -271.5 65.5t-183 187.5t-65.5 288zM328 508q0 -154 72.5 -244t189.5 -90 q115 0 187.5 93t72.5 253q0 150 -72.5 237t-187.5 87q-117 0 -189.5 -90t-72.5 -246z" />
<glyph unicode="&#x2206;" horiz-adv-x="1652" d="M102 848q0 190 90.5 332.5t254 219.5t380.5 77t381 -78t253 -219.5t89 -331.5q0 -340 -338 -633h314v-215h-576v207q170 154 252 310.5t82 324.5q0 199 -121 311.5t-336 112.5q-217 0 -337.5 -112t-120.5 -312q0 -168 83 -325t253 -310v-207h-576v215h311 q-338 289 -338 633z" />
<glyph unicode="&#x220f;" d="M111 -373v1831h1007v-1831h-237v1620h-533v-1620h-237z" />
<glyph unicode="&#x2211;" horiz-adv-x="1232" d="M88 -182l514 725l-514 725v190h1053v-215h-748l441 -616l-3 -166l-438 -619h748v-215h-1053v191z" />
<glyph unicode="&#x221a;" d="M6 500v182h348l228 -791l415 1678h193l-506 -1983h-195l-276 914h-207z" />
<glyph unicode="&#x221e;" d="M68 588q0 150 78.5 240t215.5 90q70 0 137.5 -39t114.5 -123q47 84 115 123t137 39q138 0 216.5 -90.5t78.5 -239.5q0 -152 -78.5 -241t-216.5 -89q-72 0 -138 38t-114 122q-47 -84 -113.5 -122t-138.5 -38q-137 0 -215.5 89t-78.5 241zM231 588q0 -78 37 -127t105 -49 q53 0 100 42t80 136q-61 174 -180 174q-66 0 -104 -50t-38 -126zM676 590q33 -94 80 -136t100 -42q68 0 104.5 50t36.5 126t-37.5 126t-103.5 50q-119 0 -180 -174z" />
<glyph unicode="&#x222b;" d="M227 -158q55 -16 99 -16q72 0 115.5 42t43.5 136v1094q0 180 92.5 278.5t264.5 98.5q89 0 159 -23v-205q-55 16 -98 17q-160 0 -160 -179v-1093q0 -180 -92 -278.5t-264 -98.5q-90 0 -160 23v204z" />
<glyph unicode="&#x2248;" horiz-adv-x="1218" d="M106 332q35 100 109 157.5t168 57.5q63 0 121.5 -22.5t140.5 -63.5q68 -33 104.5 -48.5t71.5 -15.5q57 0 94 32t62 95l137 -86q-35 -100 -108.5 -157.5t-167.5 -57.5q-61 0 -121 22.5t-144 65.5q-70 35 -104.5 49.5t-69.5 14.5q-111 0 -155 -131zM106 745q35 100 109 158 t168 58q63 0 121.5 -23t140.5 -64q68 -33 104.5 -48t71.5 -15q57 0 94 31.5t62 95.5l137 -86q-35 -100 -108.5 -157.5t-167.5 -57.5q-61 0 -121 22.5t-144 65.5q-70 35 -104.5 49t-69.5 14q-111 0 -155 -131z" />
<glyph unicode="&#x2260;" d="M111 293v182h344l96 232h-440v182h516l114 274l166 -71l-84 -203h295v-182h-370l-97 -232h467v-182h-543l-112 -273l-168 70l84 203h-268z" />
<glyph unicode="&#x2264;" d="M111 0v180h1007v-180h-1007zM111 592v194l1007 330v-190l-747 -238l747 -237v-193z" />
<glyph unicode="&#x2265;" d="M111 0v180h1007v-180h-1007zM111 258v193l747 237l-747 238v190l1007 -330v-194z" />
<glyph unicode="&#x25ca;" horiz-adv-x="1241" d="M94 578l428 991h197l428 -991l-428 -992h-197zM293 578l328 -762l327 762l-327 761z" />
<glyph unicode="&#x25fc;" horiz-adv-x="1034" d="M0 0v1034h1034v-1034h-1034z" />
<glyph unicode="&#xf8ff;" horiz-adv-x="1361" d="M35 764h489l152 463l160 -463h489l-393 -299l145 -463l-401 279l-393 -279l145 463zM541 410h57v155l59 -112h48l61 112v-155h57v268h-55l-86 -162l-86 162h-55v-268z" />
</font>
</defs>
</svg>
